************************************************** **********
The Physician (2013) 1080p BluRay DTS x264-PHD
File Size: 12.5 GiB

************************************************** **********



Title: The Physician
Year: 2013
Genre: Adventure, Drama
Rating: 7.3 (3,679 votes)
Runtime: 150 min
Director: Philipp Stölzl
Cast: Emma Rigby, Stellan Skarsgård, Olivier Martinez, Ben Kingsley
Plot:
Code:
INFO:

General
Complete name : The.Physician.2013.1080p.BluRay.DTS.x264-PHD.mkv
Format : Matroska
Format version : Version 4 / Version 2
File size : 12.5 GiB
Duration : 2h 35mn
Overall bit rate : 11.5 Mbps
Encoded date : UTC 2014-04-16 10:13:23
Writing application : mkvmerge v6.8.0 ('Theme for Great Cities') 64bit built on Mar 2 2014 21:34:26
Writing library : libebml v1.3.0 + libmatroska v1.4.1

Video
ID : 1
Format : AVC
Format/Info : Advanced Video Codec
Format profile : High@L4.1
Format settings, CABAC : Yes
Format settings, ReFrames : 5 frames
Codec ID : V_MPEG4/ISO/AVC
Duration : 2h 35mn
Bit rate : 9 797 Kbps
Width : 1 920 pixels
Height : 816 pixels
Display aspect ratio : 2.35:1
Frame rate mode : Constant
Frame rate : 24.000 fps
Color space : YUV
Chroma subsampling : 4:2:0
Bit depth : 8 bits
Scan type : Progressive
Bits/(Pixel*Frame) : 0.261
Stream size : 10.6 GiB (85%)
Language : English
Default : Yes
Forced : No

Audio
ID : 2
Format : DTS
Format/Info : Digital Theater Systems
Mode : 16
Format settings, Endianness : Big
Codec ID : A_DTS
Duration : 2h 35mn
Bit rate mode : Constant
Bit rate : 1 509 Kbps
Channel(s) : 6 channels
Channel positions : Front: L C R, Side: L R, LFE
Sampling rate : 48.0 KHz
Bit depth : 24 bits
Compression mode : Lossy
Stream size : 1.63 GiB (13%)
Language : English
Default : Yes
Forced : No
iMDB:
Code:
Movie Trailer:
Code:


Single Extraction | No Password | Interchangeable Links: | Working 100% |

Code: