************************************************** **********
Labor Day (2013) 1080p BluRay x264 SPARKS
File Size: 7.65 GiB

************************************************** **********



Title: Labor Day
Year: 2013
Genre: Drama
Rating: 6.8 (3,306 votes)
Runtime: 111 min
Director: Jason Reitman
Cast: Kate Winslet, Josh Brolin, Gattlin Griffith, Tobey Maguire
Plot:
Code:
INFO:

General
Complete name : LD2013.1080p.SPARKS.mkv
Format : Matroska
Format version : Version 4 / Version 2
File size : 7.65 GiB
Duration : 1h 51mn
Overall bit rate : 9 846 Kbps
Encoded date : UTC 2014-04-14 21:39:37
Writing application : mkvmerge v6.2.0 ('Promised Land') built on Apr 28 2013 12:22:01
Writing library : libebml v1.3.0 + libmatroska v1.4.0

Video
ID : 1
Format : AVC
Format/Info : Advanced Video Codec
Format profile : High@L4.1
Format settings, CABAC : Yes
Format settings, ReFrames : 5 frames
Codec ID : V_MPEG4/ISO/AVC
Duration : 1h 51mn
Bit rate : 8 335 Kbps
Width : 1 920 pixels
Height : 800 pixels
Display aspect ratio : 2.40:1
Frame rate mode : Constant
Frame rate : 23.976 fps
Color space : YUV
Chroma subsampling : 4:2:0
Bit depth : 8 bits
Scan type : Progressive
Bits/(Pixel*Frame) : 0.226
Stream size : 6.32 GiB (83%)
Writing library : x264 core 140 r2377 1ca7bb9
Language : English
Default : Yes
Forced : No

Audio
ID : 2
Format : DTS
Format/Info : Digital Theater Systems
Mode : 16
Format settings, Endianness : Big
Codec ID : A_DTS
Duration : 1h 51mn
Bit rate mode : Constant
Bit rate : 1 509 Kbps
Channel(s) : 6 channels
Channel positions : Front: L C R, Side: L R, LFE
Sampling rate : 48.0 KHz
Bit depth : 24 bits
Compression mode : Lossy
Stream size : 1.17 GiB (15%)
Language : English
Default : Yes
Forced : No
iMDB:
Code:
Movie Trailer:
Code:


Single Extraction | No Password | Interchangeable Links: | Working 100% |

Code:
DOWNLOAD 2GB LINKS:
Code:
I HAVE BACKUP, DONT WORRY ABOUT DEAD LINKS, PLEASE SEND ME PM, AND I WILL REUP ANY LINK