************************************************** **********
Vamp U (2013) 1080p Bluray x264 HD MA T6R
File Size: 11.7 GiB

************************************************** **********



INFO:

General
Complete name : Vamp U 2013 1080p Bluray X264 DTS-HD MA 7 1-T6R.mkv
Format : Matroska
Format version : Version 4 / Version 2
File size : 11.7 GiB
Duration : 1h 36mn
Overall bit rate : 17.5 Mbps
Encoded date : UTC 2014-04-12 21:47:03
Writing application : mkvmerge v6.8.0 ('Theme for Great Cities') 64bit built on Mar 2 2014 21:34:26
Writing library : libebml v1.3.0 + libmatroska v1.4.1

Video
ID : 1
Format : AVC
Format/Info : Advanced Video Codec
Format profile : High@L4.1
Format settings, CABAC : Yes
Format settings, ReFrames : 4 frames
Codec ID : V_MPEG4/ISO/AVC
Duration : 1h 36mn
Bit rate : 15.4 Mbps
Width : 1 920 pixels
Height : 1 080 pixels
Display aspect ratio : 16:9
Frame rate mode : Constant
Frame rate : 23.976 fps
Color space : YUV
Chroma subsampling : 4:2:0
Bit depth : 8 bits
Scan type : Progressive
Bits/(Pixel*Frame) : 0.310
Stream size : 10.1 GiB (86%)
Writing library : x264 core 138 r2358 9e941d1
Default : Yes
Forced : No

Audio
ID : 2
Format : DTS
Format/Info : Digital Theater Systems
Format profile : HRA / Core
Mode : 16
Format settings, Endianness : Big
Codec ID : A_DTS
Duration : 1h 36mn
Bit rate mode : Constant
Bit rate : 2 046 Kbps / 1 509 Kbps
Channel(s) : 8 channels / 6 channels
Sampling rate : 48.0 KHz
Bit depth : 16 bits
Compression mode : Lossy
Stream size : 1.37 GiB (12%)
Default : Yes
Forced : No
iMDB:
Code:






Single Extraction | No Password | Interchangeable Links: | Working 100% |

Code: