************************************************** **********
The Legend Of Hercules (2014) 1080p BluRay DTS x264 PublicHD
File Size: 7,66 GiB

************************************************** **********



INFO:

General
Complete name : H3RcuL.2014.1080p.PublicHD.mkv
Format : Matroska
Format version : Version 4 / Version 2
File size : 7.66 GiB
Duration : 1h 38mn
Overall bit rate : 11.1 Mbps
Encoded date : UTC 2014-04-02 15:18:03
Writing application : mkvmerge v6.8.0 ('Theme for Great Cities') 64bit built on Mar 2 2014 21:34:26
Writing library : libebml v1.3.0 + libmatroska v1.4.1

Video
ID : 1
Format : AVC
Format/Info : Advanced Video Codec
Format profile : High@L4.1
Format settings, CABAC : Yes
Format settings, ReFrames : 5 frames
Codec ID : V_MPEG4/ISO/AVC
Duration : 1h 38mn
Bit rate : 9 385 Kbps
Width : 1 920 pixels
Height : 804 pixels
Display aspect ratio : 2.40:1
Frame rate mode : Constant
Frame rate : 23.976 fps
Color space : YUV
Chroma subsampling : 4:2:0
Bit depth : 8 bits
Scan type : Progressive
Bits/(Pixel*Frame) : 0.254
Stream size : 6.47 GiB (84%)
Language : English
Default : Yes
Forced : No

Audio
ID : 2
Format : DTS
Format/Info : Digital Theater Systems
Mode : 16
Format settings, Endianness : Big
Codec ID : A_DTS
Duration : 1h 38mn
Bit rate mode : Constant
Bit rate : 1 509 Kbps
Channel(s) : 6 channels
Channel positions : Front: L C R, Side: L R, LFE
Sampling rate : 48.0 KHz
Bit depth : 24 bits
Compression mode : Lossy
Stream size : 1.04 GiB (14%)
Language : English
Default : Yes
Forced : No
iMDB:
Code:








Single Extraction | No Password | Interchangeable Links: | Working 100% |

Code: