************************************************** **********
Dom Hemingway (2013) LIMITED 1080p BluRay X264-AMIABLE
File Size: 6,56 GiB

************************************************** **********



INFO:

General
Complete name : DH.1080p-AMIABLE.mkv
Format : Matroska
Format version : Version 2
File size : 6.56 GiB
Duration : 1h 33mn
Overall bit rate : 10.0 Mbps
Writing application : mkvmerge v6.6.0 ('The Edge Of The In Between') built on Dec 1 2013 17:55:00
Writing library : libebml v1.3.0 + libmatroska v1.4.1

Video
ID : 1
Format : AVC
Format/Info : Advanced Video Codec
Format profile : High@L4.1
Format settings, CABAC : Yes
Format settings, ReFrames : 5 frames
Codec ID : V_MPEG4/ISO/AVC
Duration : 1h 33mn
Bit rate : 9 243 Kbps
Width : 1 920 pixels
Height : 816 pixels
Display aspect ratio : 2.35:1
Frame rate mode : Constant
Frame rate : 24.000 fps
Color space : YUV
Chroma subsampling : 4:2:0
Bit depth : 8 bits
Scan type : Progressive
Bits/(Pixel*Frame) : 0.246
Stream size : 5.93 GiB (90%)
Writing library : x264 core 142 r2409 d6b4e63
Language : English
Default : Yes
Forced : No

Audio
ID : 2
Format : DTS
Format/Info : Digital Theater Systems
Mode : 16
Format settings, Endianness : Big
Codec ID : A_DTS
Duration : 1h 33mn
Bit rate mode : Constant
Bit rate : 768 Kbps
Channel(s) : 6 channels
Channel positions : Front: L C R, Side: L R, LFE
Sampling rate : 48.0 KHz
Bit depth : 24 bits
Compression mode : Lossy
Stream size : 515 MiB (8%)
Language : English
Default : Yes
Forced : No
iMDB:
Code:






Single Extraction | No Password | Interchangeable Links: | Working 100% |

Code:


I HAVE BACKUP, DONT WORRY ABOUT DEAD LINKS, PLEASE SEND ME PM, AND I WILL REUP ANY LINK