************************************************** **********
The Secret Life of Walter Mitty (2013) 1080p BluRay x264 SPARKS
File Size: 7.94 GiB

************************************************** **********



Title: The Secret Life of Walter Mitty
Year: 2013
Genre: Adventure, Comedy, Drama, Fantasy
Rating: N/A (N/A votes)
Runtime: N/A
Director: Ben Stiller
Cast: Ben Stiller, Kristen Wiig, Adam Scott, Patton Oswalt
Plot:
Code:

INFO:

General
Complete name : SLoWM.1080p.SPARKS.mkv
Format : Matroska
Format version : Version 2
File size : 7.94 GiB
Duration : 1h 54mn
Overall bit rate : 9 918 Kbps
Writing application : mkvmerge v4.1.1 ('Bouncin' Back') built on Jul 3 2010 22:54:08
Writing library : libebml v1.0.0 + libmatroska v1.0

Video
ID : 1
Format : AVC
Format/Info : Advanced Video Codec
Format profile : High@L4.1
Format settings, CABAC : Yes
Format settings, ReFrames : 5 frames
Codec ID : V_MPEG4/ISO/AVC
Duration : 1h 54mn
Bit rate : 8 413 Kbps
Width : 1 920 pixels
Height : 800 pixels
Display aspect ratio : 2.40:1
Frame rate mode : Constant
Frame rate : 23.976 fps
Color space : YUV
Chroma subsampling : 4:2:0
Bit depth : 8 bits
Scan type : Progressive
Bits/(Pixel*Frame) : 0.228
Stream size : 6.57 GiB (83%)
Writing library : x264 core 140 r2377 1ca7bb9
Language : English
Default : Yes
Forced : No

Audio
ID : 2
Format : DTS
Format/Info : Digital Theater Systems
Mode : 16
Format settings, Endianness : Big
Codec ID : A_DTS
Duration : 1h 54mn
Bit rate mode : Constant
Bit rate : 1 509 Kbps
Channel(s) : 6 channels
Channel positions : Front: L C R, Side: L R, LFE
Sampling rate : 48.0 KHz
Bit depth : 24 bits
Compression mode : Lossy
Stream size : 1.21 GiB (15%)
Language : English
Default : Yes
Forced : No
iMDB:
Code:
Movie Trailer:
Code:






Single Extraction | No Password | Interchangeable Links: | Working 100% |

Code: