************************************************** **********
Nurse 3D (2013) 1080p BluRay x264 ROVERS [PublicHD]
File Size: 1.04 GiB

************************************************** **********



Title: Nurse 3D
Year: 2013
Genre: Thriller
Rating: 6.1 (108 votes)
Runtime: N/A
Director: Douglas Aarniokoski
Cast: Katrina Bowden, Judd Nelson, Paz de la Huerta, Corbin Bleu
Plot:
Code:
INFO:

General
Complete name : Nurse.3D.2013.1080p.BluRay.ROVERS.mkv
Format : Matroska
Format version : Version 4 / Version 2
File size : 6.56 GiB
Duration : 1h 23mn
Overall bit rate : 11.2 Mbps
Encoded date : UTC 2014-03-26 04:22:10
Writing application : mkvmerge v6.2.0 ('Promised Land') built on Apr 28 2013 12:22:01
Writing library : libebml v1.3.0 + libmatroska v1.4.0

Video
ID : 1
Format : AVC
Format/Info : Advanced Video Codec
Format profile : High@L4.1
Format settings, CABAC : Yes
Format settings, ReFrames : 5 frames
Codec ID : V_MPEG4/ISO/AVC
Duration : 1h 23mn
Bit rate : 9 676 Kbps
Width : 1 920 pixels
Height : 800 pixels
Display aspect ratio : 2.40:1
Frame rate mode : Constant
Frame rate : 23.976 fps
Color space : YUV
Chroma subsampling : 4:2:0
Bit depth : 8 bits
Scan type : Progressive
Bits/(Pixel*Frame) : 0.263
Stream size : 5.54 GiB (85%)
Writing library : x264 core 140 r2377 1ca7bb9
Language : English
Default : Yes
Forced : No

Audio
ID : 2
Format : DTS
Format/Info : Digital Theater Systems
Mode : 16
Format settings, Endianness : Big
Codec ID : A_DTS
Duration : 1h 23mn
Bit rate mode : Constant
Bit rate : 1 509 Kbps
Channel(s) : 6 channels
Channel positions : Front: L C R, Side: L R, LFE
Sampling rate : 48.0 KHz
Bit depth : 24 bits
Compression mode : Lossy
Stream size : 906 MiB (13%)
Language : English
Default : Yes
Forced : No
iMDB:
Code:
Movie Trailer:
Code:


Single Extraction | No Password | Interchangeable Links: | Working 100% |

Code: