************************************************** **********
Snowpiercer (2013) 1080p BluRay MULTi x264 BladeBDP
File Size: 9.38 GiB

************************************************** **********



INFO:

General
Complete name : Snowpiercer.2013.1080p.BluRay.DTS.MULTi.x264-BladeBDP.mkv
Format : Matroska
Format version : Version 4 / Version 2
File size : 9.38 GiB
Duration : 2h 5mn
Overall bit rate : 10.7 Mbps
Movie name : Group_Encoder : BDP@BladeBDP
Encoded date : UTC 2014-03-25 10:07:52
Writing application : mkvmerge v6.6.0 ('The Edge Of The In Between') built on Dec 1 2013 17:55:00
Writing library : Lavf53.2.0


Video
ID : 1
Format : AVC
Format/Info : Advanced Video Codec
Format profile : High@L4.1
Format settings, CABAC : Yes
Format settings, ReFrames : 4 frames
Codec ID : V_MPEG4/ISO/AVC
Duration : 2h 5mn
Bit rate : 9 248 Kbps
Width : 1 920 pixels
Height : 1 040 pixels
Display aspect ratio : 1.85:1
Frame rate mode : Constant
Frame rate : 23.976 fps
Color space : YUV
Chroma subsampling : 4:2:0
Bit depth : 8 bits
Scan type : Progressive
Bits/(Pixel*Frame) : 0.193
Stream size : 7.87 GiB (84%)
Title : Group_Encoder : BDP@BladeBDP
Writing library : x264 core 115 r1995 c1e60b9
Language : English
Default : Yes
Forced : No

Audio
ID : 2
Format : DTS
Format/Info : Digital Theater Systems
Mode : 16
Format settings, Endianness : Big
Codec ID : A_DTS
Duration : 2h 5mn
Bit rate mode : Constant
Bit rate : 1 509 Kbps
Channel(s) : 6 channels
Channel positions : Front: L C R, Side: L R, LFE
Sampling rate : 48.0 KHz
Bit depth : 16 bits
Compression mode : Lossy
Stream size : 1.33 GiB (14%)
Title : English DTS 1.5 Mbps @ 48 KHz 5.1 Channel(s)
Language : English
Default : Yes
Forced : No
iMDB:
Code:


Single Extraction | No Password | Interchangeable Links: | Working 100% |

Code: