************************************************** **********
The Hobbit The Desolation Of Smaug (2013) 1080p BluRay DTS x264 PHD
File Size: 13.4 GiB

************************************************** **********



Title: The Hobbit: The Desolation of Smaug
Year: 2013
Genre: Adventure, Fantasy
Rating: 8.2 (144,677 votes)
Runtime: 161 min
Director: Peter Jackson
Cast: Ian McKellen, Martin Freeman, Richard Armitage, Ken Stott
Plot:
Code:
INFO:

General
Complete name : The.Hobbit.The.Desolation.Of.Smaug.2013.1080p.BluR ay.DTS.x264-PHD.mkv
Format : Matroska
Format version : Version 4 / Version 2
File size : 13.4 GiB
Duration : 2h 41mn
Overall bit rate : 11.9 Mbps
Encoded date : UTC 2014-03-18 22:52:23
Writing application : mkvmerge v6.7.0 ('Back to the Ground') 64bit built on Jan 8 2014 15:10:52
Writing library : libebml v1.3.0 + libmatroska v1.4.1

Video
ID : 1
Format : AVC
Format/Info : Advanced Video Codec
Format profile : High@L4.1
Format settings, CABAC : Yes
Format settings, ReFrames : 5 frames
Codec ID : V_MPEG4/ISO/AVC
Duration : 2h 41mn
Bit rate : 10.1 Mbps
Width : 1 920 pixels
Height : 800 pixels
Display aspect ratio : 2.40:1
Frame rate mode : Constant
Frame rate : 23.976 fps
Color space : YUV
Chroma subsampling : 4:2:0
Bit depth : 8 bits
Scan type : Progressive
Bits/(Pixel*Frame) : 0.274
Stream size : 11.4 GiB (85%)
Language : English
Default : Yes
Forced : No

Audio
ID : 2
Format : DTS
Format/Info : Digital Theater Systems
Mode : 16
Format settings, Endianness : Big
Codec ID : A_DTS
Duration : 2h 41mn
Bit rate mode : Constant
Bit rate : 1 509 Kbps
Channel(s) : 6 channels
Channel positions : Front: L C R, Side: L R, LFE
Sampling rate : 48.0 KHz
Bit depth : 24 bits
Compression mode : Lossy
Stream size : 1.70 GiB (13%)
Language : English
Default : Yes
Forced : No
iMDB:
Code:
Movie Trailer:
Code:


Single Extraction | No Password | Interchangeable Links: | Working 100% |

Code:

I HAVE BACKUP, DONT WORRY ABOUT DEAD LINKS, PLEASE SEND ME PM, AND I WILL REUP ANY LINK