Frozen (2013)
Genre: Animation | Adventure | Comedy
Directed By: Chris Buck, Jennifer Lee
Cast: Kristen Bell, Idina Menzel, Jonathan Groff
MPAA Rate: PG
Country: USA
Original Language: English
Storyline: Fearless optimist Anna teams up with Kristoff in an epic journey, encountering Everest-like conditions, and a hilarious snowman named Olaf in a race to find Anna's sister Elsa, whose icy powers have trapped the kingdom in eternal winter.

IMDb Rate8.0/10139,706 votes
IMDB:
Code:

General
Unique ID : 211528168329523996629318784071465527697 (0x9F22D7E5921B9BB9A78301F50DF56991)
Complete name : Frozen.2013.BluRay.1080p.DTS.x265-CHD.mkv
Format : Matroska
Format version : Version 4 / Version 2
File size : 3.62 GiB
Duration : 1h 42mn
Overall bit rate : 5 067 Kbps
Encoded date : UTC 2014-03-07 16:48:38
Writing application : mkvmerge v6.2.0 ('Promised Land Rovi v1.0.4') built on Aug 29 2013 13:59:38
Writing library : libebml v1.3.0 + libmatroska v1.4.0
Video #1
ID : 1
Format : HEVC
Format/Info : High Efficiency Video Coding
Codec ID : V_MPEGH/ISO/HEVC
Duration : 1h 42mn
Bit rate : 3 458 Kbps
Width : 1 920 pixels
Height : 856 pixels
Display aspect ratio : 2.25:1
Frame rate mode : Constant
Frame rate : 23.976 fps
Bits/(Pixel*Frame) : 0.088
Stream size : 2.47 GiB (68%)
Default : Yes
Forced : No
Audio #2
ID : 2
Format : DTS
Format/Info : Digital Theater Systems
Mode : 16
Format settings, Endianness : Big
Codec ID : A_DTS
Duration : 1h 42mn
Bit rate mode : Constant
Bit rate : 1 509 Kbps
Channel(s) : 6 channels
Channel positions : Front: L C R, Side: L R, LFE
Sampling rate : 48.0 KHz
Bit depth : 24 bits
Compression mode : Lossy
Stream size : 1.08 GiB (30%)
Language : English
Default : Yes
Forced : No

Download
Code: