************************************************** **********
The Hungover Games (2014) 1080p BluRay x264 BRMP
File Size: 6,56 GiB

************************************************** **********



INFO:

General
Complete name : the.hungover.games.2014.1080p.bluray.x264-brmp.mkv
Format : Matroska
Format version : Version 2
File size : 6.56 GiB
Duration : 1h 25mn
Overall bit rate : 11.0 Mbps
Encoded date : UTC 2014-03-12 02:51:27
Writing application : mkvmerge v6.8.0 ('Theme for Great Cities') 32bit built on Mar 2 2014 21:27:07
Writing library : libebml v1.3.0 + libmatroska v1.4.1

Video
ID : 1
Format : AVC
Format/Info : Advanced Video Codec
Format profile : High@L4.1
Format settings, CABAC : Yes
Format settings, ReFrames : 4 frames
Codec ID : V_MPEG4/ISO/AVC
Duration : 1h 25mn
Bit rate : 9 512 Kbps
Width : 1 920 pixels
Height : 1 080 pixels
Display aspect ratio : 16:9
Frame rate mode : Constant
Frame rate : 23.976 fps
Color space : YUV
Chroma subsampling : 4:2:0
Bit depth : 8 bits
Scan type : Progressive
Bits/(Pixel*Frame) : 0.191
Stream size : 5.53 GiB (84%)
Writing library : x264 core 140 r2377 1ca7bb9
Language : English
Default : Yes
Forced : No

Audio
ID : 2
Format : DTS
Format/Info : Digital Theater Systems
Mode : 16
Format settings, Endianness : Big
Codec ID : A_DTS
Duration : 1h 25mn
Bit rate mode : Constant
Bit rate : 1 509 Kbps
Channel(s) : 6 channels
Channel positions : Front: L C R, Side: L R, LFE
Sampling rate : 48.0 KHz
Bit depth : 24 bits
Compression mode : Lossy
Stream size : 920 MiB (14%)
Language : English
Default : Yes
Forced : No

PLOT: Plot: After celebrating Doug's upcoming wedding in a cut rate hotel in Laughlin, NV, hungover guys Bradley, Ed and Zach wake up in a futuristic dystopia, having lost their pal, Doug. With the help of Effing and Justmitch, the trio's loyal advisers, the gang must now prepare to battle their way through the pop culture districts of The Hungover Games including The Real Housewives of District 8 and Teddy from The Puppet District.
iMDB:
Code:






Single Extraction | No Password | Interchangeable Links: | Working 100% |

Code:


I HAVE BACKUP, DONT WORRY ABOUT DEAD LINKS, PLEASE SEND ME PM, AND I WILL REUP ANY LINK