************************************************** **********
I Will Follow You Into The Dark (2012) 1080p BluRay DTS x264-PHD
File Size: 8.73 GiB

************************************************** **********



INFO:

General
Complete name : I.Will.Follow.You.Into.The.Dark.2012.1080p.BluRay. DTS.x264-PHD.mkv
Format : Matroska
Format version : Version 4 / Version 2
File size : 8.73 GiB
Duration : 1h 51mn
Overall bit rate : 11.2 Mbps
Encoded date : UTC 2014-03-08 19:44:56
Writing application : mkvmerge v6.7.0 ('Back to the Ground') 64bit built on Jan 8 2014 15:10:52
Writing library : libebml v1.3.0 + libmatroska v1.4.1

Video
ID : 1
Format : AVC
Format/Info : Advanced Video Codec
Format profile : High@L4.1
Format settings, CABAC : Yes
Format settings, ReFrames : 5 frames
Codec ID : V_MPEG4/ISO/AVC
Duration : 1h 51mn
Bit rate : 9 464 Kbps
Width : 1 920 pixels
Height : 802 pixels
Display aspect ratio : 2.40:1
Frame rate mode : Constant
Frame rate : 23.976 fps
Color space : YUV
Chroma subsampling : 4:2:0
Bit depth : 8 bits
Scan type : Progressive
Bits/(Pixel*Frame) : 0.256
Stream size : 7.38 GiB (85%)
Language : English
Default : Yes
Forced : No

Audio
ID : 2
Format : DTS
Format/Info : Digital Theater Systems
Mode : 16
Format settings, Endianness : Big
Codec ID : A_DTS
Duration : 1h 51mn
Bit rate mode : Constant
Bit rate : 1 509 Kbps
Channel(s) : 6 channels
Channel positions : Front: L C R, Side: L R, LFE
Sampling rate : 48.0 KHz
Bit depth : 24 bits
Compression mode : Lossy
Stream size : 1.18 GiB (13%)
Language : English
Default : Yes
Forced : No

PLOT: A woman reeling from the death of her parents becomes attached to an alluring man whose sudden disappearance sends her and her friends into a haunted high-rise to find him
iMDB:
Code:






Single Extraction | No Password | Interchangeable Links: | Working 100% |

Code:


I HAVE BACKUP, DONT WORRY ABOUT DEAD LINKS, PLEASE SEND ME PM, AND I WILL REUP ANY LINK