************************************************** **********
Alpha Alert (2013) 1080p BluRay DTS x264-PHD
File Size: 6.54 GiB

************************************************** **********



INFO:

General
Complete name : Alpha.Alert.2013.1080p.BluRay.DTS.x264.PHD.mkv
Format : Matroska
Format version : Version 4 / Version 2
File size : 6.54 GiB
Duration : 1h 24mn
Overall bit rate : 11.1 Mbps
Encoded date : UTC 2014-03-05 16:31:22
Writing application : mkvmerge v6.7.0 ('Back to the Ground') 64bit built on Jan 8 2014 15:10:52
Writing library : libebml v1.3.0 + libmatroska v1.4.1

Video
ID : 1
Format : AVC
Format/Info : Advanced Video Codec
Format profile : High@L4.1
Format settings, CABAC : Yes
Format settings, ReFrames : 4 frames
Codec ID : V_MPEG4/ISO/AVC
Duration : 1h 24mn
Bit rate : 9 632 Kbps
Width : 1 920 pixels
Height : 1 040 pixels
Display aspect ratio : 1.85:1
Frame rate mode : Constant
Frame rate : 24.000 fps
Color space : YUV
Chroma subsampling : 4:2:0
Bit depth : 8 bits
Scan type : Progressive
Bits/(Pixel*Frame) : 0.201
Stream size : 5.52 GiB (84%)
Writing library : x264 core 142 r2389+41 02cb608 tMod [8-bit@all X86_64]
Language : English
Default : Yes
Forced : No

Audio
ID : 2
Format : DTS
Format/Info : Digital Theater Systems
Mode : 16
Format settings, Endianness : Big
Codec ID : A_DTS
Duration : 1h 24mn
Bit rate mode : Constant
Bit rate : 1 509 Kbps
Channel(s) : 6 channels
Channel positions : Front: L C R, Side: L R, LFE
Sampling rate : 48.0 KHz
Bit depth : 16 bits
Compression mode : Lossy
Stream size : 909 MiB (14%)
Language : English
Default : Yes
Forced : No

Plot: Three soldiers get trapped in an elevator when terrorists set off a dirty bomb. But when White escapes, her world turns upside down as she realizes nothing is what it seems.
iMDB:
Code:




Single Extraction | No Password | Interchangeable Links: | Working 100% |

Code:

I HAVE BACKUP, DONT WORRY ABOUT DEAD LINKS, PLEASE SEND ME PM, AND I WILL REUP ANY LINK