************************************************** **********
Kill Your Darlings (2013) 1080p BluRay x264 DTS HDW
File Size: 8.27 GiB

************************************************** **********



INFO:

General
Complete name : Kill.Your.Darlings.2013.1080p.BluRay.x264.DTS-HDW.mkv
Format : Matroska
Format version : Version 4 / Version 2
File size : 8.27 GiB
Duration : 1h 42mn
Overall bit rate : 11.5 Mbps
Encoded date : UTC 2014-03-01 03:03:23
Writing application : mkvmerge v6.7.0 ('Back to the Ground') 64bit built on Jan 8 2014 15:10:52
Writing library : libebml v1.3.0 + libmatroska v1.4.1

Video
ID : 1
Format : AVC
Format/Info : Advanced Video Codec
Format profile : High@L4.1
Format settings, CABAC : Yes
Format settings, ReFrames : 5 frames
Codec ID : V_MPEG4/ISO/AVC
Duration : 1h 42mn
Bit rate : 10 000 Kbps
Width : 1 920 pixels
Height : 800 pixels
Display aspect ratio : 2.40:1
Frame rate mode : Constant
Frame rate : 23.976 fps
Color space : YUV
Chroma subsampling : 4:2:0
Bit depth : 8 bits
Scan type : Progressive
Bits/(Pixel*Frame) : 0.272
Stream size : 7.02 GiB (85%)
Writing library : x264 core 138 r2358 9e941d1
Default : Yes
Forced : No

Audio
ID : 2
Format : DTS
Format/Info : Digital Theater Systems
Mode : 16
Format settings, Endianness : Big
Codec ID : A_DTS
Duration : 1h 42mn
Bit rate mode : Constant
Bit rate : 1 509 Kbps
Channel(s) : 6 channels
Channel positions : Front: L C R, Side: L R, LFE
Sampling rate : 48.0 KHz
Bit depth : 24 bits
Compression mode : Lossy
Stream size : 1.08 GiB (13%)
Title : ??
Language : English
Default : Yes
Forced : No

PLOT: A murder in 1944 draws together the great poets of the beat generation: Allen Ginsberg, Jack Kerouac and William Burroughs.
iMDB:
Code:






Single Extraction | No Password | Interchangeable Links: | Working 100% |

Code: