************************************************** **********
The Book Thief (2013) 1080p BluRay x264 SPARKS
File Size: 1,53 GiB

************************************************** **********



Title: The Book Thief
Year: 2013
Genre: Drama, War
Rating: N/A (N/A votes)
Runtime: N/A
Director: Brian Percival
Cast: Sophie NÚlisse, Geoffrey Rush, Emily Watson, Ben Schnetzer
Plot:
Code:
INFO:

General
Complete name : F:\The.Book.Thief.2013.1080p.BluRay.x264-SPARKS\the.book.thief.2013.1080p.bluray.x264-sparks.mkv
Format : Matroska
Format version : Version 2
File size : 9.83 GiB
Duration : 2h 10mn
Overall bit rate : 10.7 Mbps
Writing application : mkvmerge v4.1.1 ('Bouncin' Back') built on Jul 3 2010 22:54:08
Writing library : libebml v1.0.0 + libmatroska v1.0

Video
ID : 1
Format : AVC
Format/Info : Advanced Video Codec
Format profile : High@L4.1
Format settings, CABAC : Yes
Format settings, ReFrames : 5 frames
Codec ID : V_MPEG4/ISO/AVC
Duration : 2h 10mn
Bit rate : 9 240 Kbps
Width : 1 920 pixels
Height : 800 pixels
Display aspect ratio : 2.40:1
Frame rate mode : Constant
Frame rate : 23.976 fps
Color space : YUV
Chroma subsampling : 4:2:0
Bit depth : 8 bits
Scan type : Progressive
Bits/(Pixel*Frame) : 0.251
Stream size : 8.25 GiB (84%)
Writing library : x264 core 140 r2377 1ca7bb9
Language : English
Default : Yes
Forced : No

Audio
ID : 2
Format : DTS
Format/Info : Digital Theater Systems
Mode : 16
Format settings, Endianness : Big
Codec ID : A_DTS
Duration : 2h 10mn
Bit rate mode : Constant
Bit rate : 1 509 Kbps
Channel count : 6 channels
Channel positions : Front: L C R, Side: L R, LFE
Sampling rate : 48.0 KHz
Bit depth : 24 bits
Compression mode : Lossy
Stream size : 1.38 GiB (14%)
Language : English
Default : Yes
Forced : No

iMDB:
Code:
Movie Trailer:
Code:







Single Extraction | No Password | Interchangeable Links: | Working 100% |

Code:

I HAVE BACKUP, DONT WORRY ABOUT DEAD LINKS, PLEASE SEND ME PM, AND I WILL REUP ANY LINK