************************************************** **********
The Hunger Games Catching Fire (2013) REPACK 1080p BluRay x264 AMIABLE
File Size: 9.84 GiB

************************************************** **********




INFO:

General
Complete name : HGCF.2013.1080p.BluRay.X264-AMIABLE.mkv
Format : Matroska
Format version : Version 2
File size : 9.84 GiB
Duration : 2h 26mn
Overall bit rate : 9 628 Kbps
Writing application : mkvmerge v6.6.0 ('The Edge Of The In Between') built on Dec 1 2013 17:55:00
Writing library : libebml v1.3.0 + libmatroska v1.4.1

Video
ID : 1
Format : AVC
Format/Info : Advanced Video Codec
Format profile : High@L4.1
Format settings, CABAC : Yes
Format settings, ReFrames : 4 frames
Codec ID : V_MPEG4/ISO/AVC
Duration : 2h 26mn
Bit rate : 8 120 Kbps
Width : 1 920 pixels
Height : 1 080 pixels
Display aspect ratio : 16:9
Frame rate mode : Constant
Frame rate : 23.976 fps
Color space : YUV
Chroma subsampling : 4:2:0
Bit depth : 8 bits
Scan type : Progressive
Bits/(Pixel*Frame) : 0.163
Stream size : 8.10 GiB (82%)
Writing library : x264 core 142 r2389 956c8d8
Language : English
Default : Yes
Forced : No

Audio
ID : 2
Format : DTS
Format/Info : Digital Theater Systems
Mode : 16
Format settings, Endianness : Big
Codec ID : A_DTS
Duration : 2h 26mn
Bit rate mode : Constant
Bit rate : 1 509 Kbps
Channel count : 6 channels
Channel positions : Front: L C R, Side: L R, LFE
Sampling rate : 48.0 KHz
Bit depth : 24 bits
Compression mode : Lossy
Stream size : 1.54 GiB (16%)
Language : English
Default : Yes
Forced : No

PLOT: Katniss Everdeen and Peeta Mellark become targets of the Capitol after their victory in the 74th Hunger Games sparks a rebellion in the Districts of Panem.
iMDB:
Code:



Single Extraction | No Password | Interchangeable Links: | Added 5% Recovery Record | Working 100% |

Code:


I HAVE BACKUP, DONT WORRY ABOUT DEAD LINKS, PLEASE SEND ME PM, AND I WILL REUP ANY LINK