************************************************** **********
Mandela Long Walk to Freedom (2013) 1080p BluRay x264 SPARKS
File Size: 9.83 GiB

************************************************** **********



Title: Mandela: Long Walk to Freedom
Year: 2013
Genre: Biography, Drama, History
Rating: 7.4 (104 votes)
Runtime: 2 h 32 min
Director: Justin Chadwick
Cast: Idris Elba, Naomie Harris, Terry Pheto, Robert Hobbs
Plot:
Code:
INFO:

General
Complete name : Mandela.Long.Walk.to.Freedom.2013.1080p.BluRay.x26 4-SPARKS.mkv
Format : Matroska
Format version : Version 4 / Version 2
File size : 9.83 GiB
Duration : 2h 21mn
Overall bit rate : 9 968 Kbps
Encoded date : UTC 2014-02-22 09:14:49
Writing application : mkvmerge v6.2.0 ('Promised Land') built on Apr 28 2013 12:22:01
Writing library : libebml v1.3.0 + libmatroska v1.4.0

Video
ID : 1
Format : AVC
Format/Info : Advanced Video Codec
Format profile : High@L4.1
Format settings, CABAC : Yes
Format settings, ReFrames : 5 frames
Codec ID : V_MPEG4/ISO/AVC
Duration : 2h 21mn
Bit rate : 8 461 Kbps
Width : 1 920 pixels
Height : 816 pixels
Display aspect ratio : 2.35:1
Frame rate mode : Constant
Frame rate : 23.976 fps
Color space : YUV
Chroma subsampling : 4:2:0
Bit depth : 8 bits
Scan type : Progressive
Bits/(Pixel*Frame) : 0.225
Stream size : 8.15 GiB (83%)
Title : X264
Writing library : x264 core 140 r2377 1ca7bb9
Language : English
Default : Yes
Forced : No

Audio
ID : 2
Format : DTS
Format/Info : Digital Theater Systems
Mode : 16
Format settings, Endianness : Big
Codec ID : A_DTS
Duration : 2h 21mn
Bit rate mode : Constant
Bit rate : 1 509 Kbps
Channel count : 6 channels
Channel positions : Front: L C R, Side: L R, LFE
Sampling rate : 48.0 KHz
Bit depth : 24 bits
Compression mode : Lossy
Stream size : 1.49 GiB (15%)
Title : DTS
Language : English
Default : Yes
Forced : No
iMDB:
Code:
Movie Trailer:
Code:




Single Extraction | No Password | Interchangeable Links: | Added 5% Recovery Record | Working 100% |

Code:


I HAVE BACKUP, DONT WORRY ABOUT DEAD LINKS, PLEASE SEND ME PM, AND I WILL REUP ANY LINK