Back to the Future Part II (1989)
Genre: Adventure | Comedy | Sci-Fi
Directed By: Robert Zemeckis
Cast: Michael J. Fox, Christopher Lloyd, Lea Thompson
Country: USA
Original Language: English
Storyline: After visiting 2015, Marty McFly must repeat his visit to 1955 to prevent disastrous changes to 1985... without interfering with his first trip.

IMDb Rate7.8/10217,280 votes
IMDB:
Code:


Source - Back to the Future Part II 1989 1080p Blu-ray VC-1 DTS-HD MA 5.1-hgking (Thanks!)
Can be played on "Mobile Devices"

- DXVA Compatible

Encoder: Rhyging

General
Complete name : Back to the Future Part 2 (1989) Bluray 720Pad AAC x264 - aSOUL.mp4
Format : MPEG-4
Format profile : Base Media
Codec ID : isom
File size : 2.04 GiB
Duration : 1h 47mn
Overall bit rate mode : Variable
Overall bit rate : 2 708 Kbps
Encoded date : UTC 2014-02-21 11:53:22
Tagged date : UTC 2014-02-21 11:53:22
Cover : Yes

Video
ID : 1
Format : AVC
Format/Info : Advanced Video Codec
Format profile : High@L3.1
Format settings, CABAC : Yes
Format settings, ReFrames : 9 frames
Codec ID : avc1
Codec ID/Info : Advanced Video Coding
Duration : 1h 47mn
Bit rate mode : Variable
Bit rate : 2 518 Kbps
Maximum bit rate : 10 000 Kbps
Width : 1 280 pixels
Height : 692 pixels
Display aspect ratio : 1.85:1
Frame rate mode : Constant
Frame rate : 23.976 fps
Color space : YUV
Chroma subsampling : 4:2:0
Bit depth : 8 bits
Scan type : Progressive
Bits/(Pixel*Frame) : 0.119
Stream size : 1.89 GiB (93%)
Title : Back to the Future Part 2 (1989) Bluray 720Pad AAC x264 DXVA - aSOUL
Writing library : x264 core 135 r2345 f0c1c53
Encoded date : UTC 2014-02-21 11:53:22
Tagged date : UTC 2014-02-21 11:55:04

Audio
ID : 2
Format : AAC
Format/Info : Advanced Audio Codec
Format profile : LC
Codec ID : 40
Duration : 1h 47mn
Bit rate mode : Variable
Bit rate : 192 Kbps
Maximum bit rate : 198 Kbps
Channel(s) : 2 channels
Channel positions : Front: L R
Sampling rate : 48.0 KHz
Compression mode : Lossy
Stream size : 148 MiB (7%)
Language : English
Encoded date : UTC 2014-02-21 11:54:56
Tagged date : UTC 2014-02-21 11:55:04

Text
ID : 3
Format : Timed Text
Codec ID : tx3g
Duration : 1h 43mn
Bit rate mode : Variable
Bit rate : 75 bps
Stream size : 57.1 KiB (0%)
Language : English
Encoded date : UTC 2014-02-21 11:55:04
Tagged date : UTC 2014-02-21 11:55:04

Screenshots:
Gallery Link:
Code:



Contact us @: asoul014@gmail.com


Download
Code: