************************************************** **********
12 Years A Slave (2013) 1080p BluRay x264 BLOW
File Size: 10.9 GiB

************************************************** **********



INFO:

General
Complete name : 12YeaRs13.1080.blow\blow-12years1080.mkv
Format : Matroska
Format version : Version 2
File size : 10.9 GiB
Duration : 2h 14mn
Overall bit rate : 11.7 Mbps
Encoded date : UTC 2014-02-20 02:11:23
Writing application : mkvmerge v6.5.0 ('Isn't she lovely') built on Oct 20 2013 12:50:05
Writing library : libebml v1.3.0 + libmatroska v1.4.1

Video
ID : 1
Format : AVC
Format/Info : Advanced Video Codec
Format profile : High@L4.1
Format settings, CABAC : Yes
Format settings, ReFrames : 5 frames
Codec ID : V_MPEG4/ISO/AVC
Duration : 2h 14mn
Bit rate : 10.2 Mbps
Width : 1 920 pixels
Height : 800 pixels
Display aspect ratio : 2.40:1
Frame rate mode : Constant
Frame rate : 23.976 fps
Color space : YUV
Chroma subsampling : 4:2:0
Bit depth : 8 bits
Scan type : Progressive
Bits/(Pixel*Frame) : 0.276
Stream size : 9.29 GiB (85%)
Writing library : x264 core 140 r2377 1ca7bb9
Language : English
Default : Yes
Forced : No

Audio
ID : 2
Format : DTS
Format/Info : Digital Theater Systems
Mode : 16
Format settings, Endianness : Big
Codec ID : A_DTS
Duration : 2h 14mn
Bit rate mode : Constant
Bit rate : 1 509 Kbps
Channel count : 6 channels
Channel positions : Front: L C R, Side: L R, LFE
Sampling rate : 48.0 KHz
Bit depth : 24 bits
Compression mode : Lossy
Stream size : 1.41 GiB (13%)
Language : English
Default : Yes
Forced : No

PLOT: In the antebellum United States, Solomon Northup, a free black man from upstate New York, is abducted and sold into slavery.
iMDB:
Code:








SINGLE EXTRACTION | NO PASSWORD | INTERCHANGEABLE LINK:
Code:


I HAVE BACKUP, DONT WORRY ABOUT DEAD LINKS, PLEASE SEND ME PM, AND I WILL REUP ANY LINK