************************************************** **********
Enemies Closer (2013) 1080p BluRay x264-PFa
File Size: 6.55 GiB

************************************************** **********



Title: Enemies Closer
Year: 2013
Genre: Thriller
Rating: 8.2 (46 votes)
Runtime: 1 h 25 min
Director: Peter Hyams
Cast: Jean-Claude Van Damme, Orlando Jones, Tom Everett Scott, Linzey Cocker
Plot:
Code:
INFO:

General
Complete name : EnECl013.1080p.PFa.mkv
Format : Matroska
Format version : Version 4 / Version 2
File size : 6.55 GiB
Duration : 1h 24mn
Overall bit rate : 11.0 Mbps
Encoded date : UTC 2014-02-01 09:17:34
Writing application : mkvmerge v6.6.0 ('The Edge Of The In Between') built on Dec 1 2013 17:55:00
Writing library : libebml v1.3.0 + libmatroska v1.4.1

Video
ID : 1
Format : AVC
Format/Info : Advanced Video Codec
Format profile : High@L4.1
Format settings, CABAC : Yes
Format settings, ReFrames : 5 frames
Codec ID : V_MPEG4/ISO/AVC
Duration : 1h 24mn
Bit rate : 9 529 Kbps
Width : 1 920 pixels
Height : 800 pixels
Display aspect ratio : 2.40:1
Frame rate mode : Constant
Frame rate : 23.976 fps
Color space : YUV
Chroma subsampling : 4:2:0
Bit depth : 8 bits
Scan type : Progressive
Bits/(Pixel*Frame) : 0.259
Stream size : 5.52 GiB (84%)
Writing library : x264 core 142 r2389 956c8d8
Language : English
Default : Yes
Forced : No

Audio
ID : 2
Format : DTS
Format/Info : Digital Theater Systems
Mode : 16
Format settings, Endianness : Big
Codec ID : A_DTS
Duration : 1h 24mn
Bit rate mode : Constant
Bit rate : 1 509 Kbps
Channel count : 6 channels
Channel positions : Front: L C R, Side: L R, LFE
Sampling rate : 48.0 KHz
Bit depth : 24 bits
Compression mode : Lossy
Delay relative to video : -83ms
Stream size : 917 MiB (14%)
Default : Yes
Forced : No
iMDB:
Code:
Movie Trailer:
Code:




SINGLE EXTRACTION | NO PASSWORD | INTERCHANGEABLE LINK:
Code:
DOWNLOAD SINGL LINKS:
Code:
I HAVE BACKUP, DONT WORRY ABOUT DEAD LINKS, PLEASE SEND ME PM, AND I WILL REUP ANY LINK