************************************************** **********
Richard The Lionheart (2013) 1080p BluRay x264 PHD
File Size: 6.78 GiB

************************************************** **********



Title: Richard: The Lionheart
Year: 2013
Genre: Action, Adventure
Rating: N/A (N/A votes)
Runtime: N/A
Director: Stefano Milla
Cast: Malcolm McDowell, Stewart Arnold, Gregory Chandler, Maurizio Corigliano
Plot:
Code:
INFO:

General
Complete name : Richard.The.Lionheart.2013.1080p.BluRay.DTS-ES.x264-PHD.mkv
Format : Matroska
Format version : Version 4 / Version 2
File size : 6.78 GiB
Duration : 1h 39mn
Overall bit rate : 9 703 Kbps
Encoded date : UTC 2014-02-14 08:50:31
Writing application : mkvmerge v6.7.0 ('Back to the Ground') 64bit built on Jan 8 2014 15:10:52
Writing library : libebml v1.3.0 + libmatroska v1.4.1

Video
ID : 1
Format : AVC
Format/Info : Advanced Video Codec
Format profile : High@L4.1
Format settings, CABAC : Yes
Format settings, ReFrames : 5 frames
Codec ID : V_MPEG4/ISO/AVC
Duration : 1h 39mn
Bit rate : 8 742 Kbps
Width : 1 920 pixels
Height : 808 pixels
Display aspect ratio : 2.40:1
Frame rate mode : Constant
Frame rate : 29.970 fps
Color space : YUV
Chroma subsampling : 4:2:0
Bit depth : 8 bits
Scan type : Progressive
Bits/(Pixel*Frame) : 0.188
Stream size : 6.10 GiB (90%)
Language : English
Default : Yes
Forced : No

Audio
ID : 2
Format : DTS
Format/Info : Digital Theater Systems
Format profile : ES
Mode : 16
Format settings, Endianness : Big
Codec ID : A_DTS
Duration : 1h 39mn
Bit rate mode : Constant
Bit rate : 768 Kbps
Channel count : 6 channels
Channel positions : Front: L C R, Side: L R, LFE
Sampling rate : 48.0 KHz
Bit depth : 24 bits
Compression mode : Lossy
Stream size : 549 MiB (8%)
Language : English
Default : Yes
Forced : No
iMDB:
Code:
Movie Trailer:
Code:



SINGLE EXTRACTION | NO PASSWORD | INTERCHANGEABLE LINK:
Code:

I HAVE BACKUP, DONT WORRY ABOUT DEAD LINKS, PLEASE SEND ME PM, AND I WILL REUP ANY LINK