Te3n 2016 HQ 1080p Blu-ray x264 DTS-HDMA 5.1 ESub - DDR







Source : DDR Blu-ray BD50
Format : Matroska
File size : 22.1 GiB
Duration : 2h 15mn
Overall bit rate : 23.3 Mbps
Encoded date : UTC 2016-07-22 00:55:23

Video
Format : AVC
Format/Info : Advanced Video Codec
Format profile : High@L4.1
Format settings, CABAC : Yes
Format settings, ReFrames : 5 frames
Codec ID : V_MPEG4/ISO/AVC
Duration : 2h 15mn
Bit rate : 19.2 Mbps
Width : 1 920 pixels
Height : 816 pixels
Display aspect ratio : 2.35:1
Frame rate mode : Constant
Frame rate : 24.000 fps
Color space : YUV
Chroma subsampling : 4:2:0
Bit depth : 8 bits
Scan type : Progressive
Bits/(Pixel*Frame) : 0.512
Stream size : 18.3 GiB (83%)
Default : Yes
Forced : No
Color primaries : BT.709

Audio
Format : DTS
Format/Info : Digital Theater Systems
Format profile : MA / Core
Mode : 16
Format settings, Endianness : Big
Codec ID : A_DTS
Duration : 2h 15mn
Bit rate mode : Variable / Constant
Bit rate : 4 010 Kbps / 1 509 Kbps
Channel(s) : 6 channels
Channel positions : Front: L C R, Side: L R, LFE
Sampling rate : 48.0 KHz
Frame rate : 93.750 fps (512 spf)
Bit depth : 24 bits
Compression mode : Lossless / Lossy
Stream size : 3.81 GiB (17%)
Language : Hindi
Default : Yes
Forced : No

Text
Format : VobSub
Muxing mode : zlib
Codec ID : S_VOBSUB
Codec ID/Info : Picture based subtitle format used on DVDs
Duration : 2h 7mn
Bit rate : 3 399 bps
Count of elements : 1365
Stream size : 3.10 MiB (0%)
Language : English
Default : Yes
Forced : No
















Single Link

Code:
2GB Link

Code:




Code: