Baaghi 2016 Blu-ray REMUX 1080p AVC Dolby ATMOS 7.1 ESub - DDR







Format : Matroska
Format version : Version 4 / Version 2
File size : 30.7 GiB
Duration : 2h 14mn
Overall bit rate mode : Variable
Overall bit rate : 32.8 Mbps


Video
ID : 1
Format : AVC
Format/Info : Advanced Video Codec
Format profile : High@L4.1
Format settings, CABAC : Yes
Format settings, ReFrames : 4 frames
Codec ID : V_MPEG4/ISO/AVC
Duration : 2h 14mn
Bit rate mode : Constant
Bit rate : 28.0 Mbps
Width : 1 920 pixels
Height : 1 080 pixels
Display aspect ratio : 16:9
Frame rate mode : Constant
Frame rate : 24.000 fps
Color space : YUV
Chroma subsampling : 4:2:0
Bit depth : 8 bits
Scan type : Progressive
Bits/(Pixel*Frame) : 0.563
Stream size : 25.5 GiB (83%)
Language : English
Default : Yes
Forced : No

Audio #1
ID : 2
Format : Atmos / TrueHD
Codec ID : A_TRUEHD
Duration : 2h 14mn
Bit rate mode : Variable
Bit rate : 4 837 Kbps
Maximum bit rate : 7 701 Kbps
Channel(s) : Object Based / 8 channels
Channel positions : Object Based / Front: L C R, Side: L R, Back: L R, LFE
Sampling rate : / 48.0 KHz
Frame rate : 1 200.000 fps (40 spf)
Compression mode : Lossless
Stream size : 4.53 GiB (15%)
Language : Hindi
Default : Yes
Forced : No

Audio #2
ID : 3
Format : AC-3
Format/Info : Audio Coding 3
Mode extension : CM (complete main)
Format settings, Endianness : Big
Codec ID : A_AC3
Duration : 2h 14mn
Bit rate mode : Constant
Bit rate : 640 Kbps
Channel(s) : 6 channels
Channel positions : Front: L C R, Side: L R, LFE
Sampling rate : 48.0 KHz
Frame rate : 31.250 fps (1536 spf)
Compression mode : Lossy
Stream size : 614 MiB (2%)
Language : Hindi
Default : No
Forced : No

Text
ID : 4
Format : PGS
Muxing mode : zlib
Codec ID : S_HDMV/PGS
Codec ID/Info : Picture based subtitle format used on BDs/HD-DVDs
Duration : 2h 10mn
Bit rate : 11.6 Kbps
Count of elements : 2259
Stream size : 10.7 MiB (0%)
Language : English
Default : Yes
Forced : No












Single Link



Code:


2GB Link


Code:


Code: