Kanthaswamy 2009 Blu-ray 1080p AVC DTS 40.11 GB



DISC INFO:

Disc Title: [BD50] Kanthaswamy 2009 Blu-ray 1080p AVC DTS-HD MA 5.1
Disc Size: 43,065,478,607 bytes
Protection: AACS
BD-Java: No
BDInfo: 0.5.8

PLAYLIST REPORT:

Name: 00000.MPLS
Length: 3:14:56.250 (h:m:s.ms)
Size: 42,784,307,520 bytes
Total Bitrate: 29.26 Mbps

VIDEO:

Codec Bitrate Description
----- ------- -----------
MPEG-4 AVC Video 24947 kbps 1080p / 24 fps / 16:9 / High Profile 4.1

AUDIO:

Codec Language Bitrate Description
----- -------- ------- -----------
DTS-HD Master Audio English 2766 kbps 5.1 / 48 kHz / 2766 kbps / 16-bit (DTS Core: 5.1 / 48 kHz / 1509 kbps / 16-bit)

SUBTITLES:

Codec Language Bitrate Description
----- -------- ------- -----------
Presentation Graphics English 30.618 kbps

FILES:

Name Time In Length Size Total Bitrate
---- ------- ------ ---- -------------
00007.M2TS 0:00:00.000 0:00:10.000 940,032 752
00000.M2TS 0:00:10.000 3:14:31.250 42,782,464,320 29,325
00008.M2TS 3:14:41.250 0:00:15.000 903,168 482

QUICK SUMMARY:

Disc Title: [BD50] Kanthaswamy 2009 Blu-ray 1080p AVC DTS-HD MA 5.1
Disc Size: 43,065,478,607 bytes
Protection: AACS
BD-Java: No
Playlist: 00000.MPLS
Size: 42,784,307,520 bytes
Length: 3:14:56.250
Total Bitrate: 29.26 Mbps
Video: MPEG-4 AVC Video / 24947 kbps / 1080p / 24 fps / 16:9 / High Profile 4.1
Audio: English / DTS-HD Master Audio / 5.1 / 48 kHz / 2766 kbps / 16-bit (DTS Core: 5.1 / 48 kHz / 1509 kbps / 16-bit)
Subtitle: English / 30.618 kbps


Kanthaswamy Download Links:


Code:

Code:

Code:

Code:

Code:
One Folder for Tamil HD Movies
Code:
Important Note: The above folder will be updated ASAP. If the links are dead. Movies will be updated Regularly.