Singam 2 2013 Blu-ray 1080p AVC DTS 39.87 GB



DISC INFO:

Disc Title: [BD50] Singam 2 2013 Blu-ray 1080p AVC DTS-HD MA 5.1
Disc Size: 42,809,156,353 bytes
Protection: AACS
BD-Java: No
BDInfo: 0.5.8

PLAYLIST REPORT:

Name: 00000.MPLS
Length: 2:45:59.991 (h:m:s.ms)
Size: 42,496,030,848 bytes
Total Bitrate: 34.13 Mbps

VIDEO:

Codec Bitrate Description
----- ------- -----------
MPEG-4 AVC Video 29965 kbps 1080p / 23.976 fps / 16:9 / High Profile 4.1

AUDIO:

Codec Language Bitrate Description
----- -------- ------- -----------
DTS-HD Master Audio English 2402 kbps 5.1 / 48 kHz / 2402 kbps / 16-bit (DTS Core: 5.1 / 48 kHz / 1509 kbps / 16-bit)

SUBTITLES:

Codec Language Bitrate Description
----- -------- ------- -----------
Presentation Graphics English 41.538 kbps

FILES:

Name Time In Length Size Total Bitrate
---- ------- ------ ---- -------------
00009.M2TS 0:00:00.000 0:00:05.004 2,611,200 4,174
00000.M2TS 0:00:05.004 2:45:47.979 42,493,081,728 34,172
00007.M2TS 2:45:52.984 0:00:02.001 43,008 172
00006.M2TS 2:45:54.986 0:00:05.004 294,912 471

QUICK SUMMARY:

Disc Title: [BD50] Singam 2 2013 Blu-ray 1080p AVC DTS-HD MA 5.1
Disc Size: 42,809,156,353 bytes
Protection: AACS
BD-Java: No
Playlist: 00000.MPLS
Size: 42,496,030,848 bytes
Length: 2:45:59.991
Total Bitrate: 34.13 Mbps
Video: MPEG-4 AVC Video / 29965 kbps / 1080p / 23.976 fps / 16:9 / High Profile 4.1
Audio: English / DTS-HD Master Audio / 5.1 / 48 kHz / 2402 kbps / 16-bit (DTS Core: 5.1 / 48 kHz / 1509 kbps / 16-bit)
Subtitle: English / 41.538 kbps


Singam 2 Download Links:


Code:

Code:

Code:

Code:

Code:
One Folder for Tamil HD Movies
Code:
Important Note: The above folder will be updated ASAP. If the links are dead. Movies will be updated Regularly.