Soodhu Kavvum 2013 Blu-ray 1080p AVC DTS 36.88 GB



DISC INFO:

Disc Title: [BD50] Soodhu Kavvum 2013 Blu-ray 1080p AVC DTS-HD MA 5.1
Disc Size: 39,606,768,606 bytes
Protection: AACS
BD-Java: No
BDInfo: 0.5.8

PLAYLIST REPORT:

Name: 00000.MPLS
Length: 2:13:15.404 (h:m:s.ms)
Size: 39,145,516,608 bytes
Total Bitrate: 39.17 Mbps

VIDEO:

Codec Bitrate Description
----- ------- -----------
MPEG-4 AVC Video 29956 kbps 1080p / 23.976 fps / 16:9 / High Profile 4.1

AUDIO:

Codec Language Bitrate Description
----- -------- ------- -----------
DTS-HD Master Audio English 2542 kbps 5.1 / 48 kHz / 2542 kbps / 16-bit (DTS Core: 5.1 / 48 kHz / 1509 kbps / 16-bit)
LPCM Audio English 4608 kbps 5.1 / 48 kHz / 4608 kbps / 16-bit

SUBTITLES:

Codec Language Bitrate Description
----- -------- ------- -----------
Presentation Graphics English 34.498 kbps

FILES:

Name Time In Length Size Total Bitrate
---- ------- ------ ---- -------------
00013.M2TS 0:00:00.000 0:00:05.004 2,887,680 4,616
00000.M2TS 0:00:05.004 2:13:03.392 39,142,291,008 39,224
00012.M2TS 2:13:08.397 0:00:02.001 43,008 172
00011.M2TS 2:13:10.399 0:00:05.004 294,912 471

QUICK SUMMARY:

Disc Title: [BD50] Soodhu Kavvum 2013 Blu-ray 1080p AVC DTS-HD MA 5.1
Disc Size: 39,606,768,606 bytes
Protection: AACS
BD-Java: No
Playlist: 00000.MPLS
Size: 39,145,516,608 bytes
Length: 2:13:15.404
Total Bitrate: 39.17 Mbps
Video: MPEG-4 AVC Video / 29956 kbps / 1080p / 23.976 fps / 16:9 / High Profile 4.1
Audio: English / DTS-HD Master Audio / 5.1 / 48 kHz / 2542 kbps / 16-bit (DTS Core: 5.1 / 48 kHz / 1509 kbps / 16-bit)
Audio: English / LPCM Audio / 5.1 / 48 kHz / 4608 kbps / 16-bit
Subtitle: English / 34.498 kbps


Soodhu Kavvum Download Links:


Code:

Code:

Code:

Code:

Code:
One Folder for Tamil HD Movies
Code:
Important Note: The above folder will be updated ASAP. If the links are dead. Movies will be updated Regularly.