Raja Rani 2013 Blu-ray 1080p AVC DTS 40.13 GB



DISC INFO:

Disc Title: [BD50] Raja Rani 2013 Blu-ray 1080p AVC DTS-HD MA 5.1
Disc Size: 43,097,467,682 bytes
Protection: AACS
BD-Java: No
BDInfo: 0.5.8

PLAYLIST REPORT:

Name: 00000.MPLS
Length: 2:44:10.298 (h:m:s.ms)
Size: 42,231,227,904 bytes
Total Bitrate: 34.30 Mbps

VIDEO:

Codec Bitrate Description
----- ------- -----------
MPEG-4 AVC Video 29977 kbps 1080p / 23.976 fps / 16:9 / High Profile 4.1

AUDIO:

Codec Language Bitrate Description
----- -------- ------- -----------
DTS-HD Master Audio English 2556 kbps 5.1 / 48 kHz / 2556 kbps / 16-bit (DTS Core: 5.1 / 48 kHz / 1509 kbps / 16-bit)

SUBTITLES:

Codec Language Bitrate Description
----- -------- ------- -----------
Presentation Graphics English 34.981 kbps

FILES:

Name Time In Length Size Total Bitrate
---- ------- ------ ---- -------------
00000.M2TS 0:00:00.000 2:44:03.291 42,230,889,984 34,322
00010.M2TS 2:44:03.291 0:00:02.001 43,008 172
00006.M2TS 2:44:05.293 0:00:05.004 294,912 471

QUICK SUMMARY:

Disc Title: [BD50] Raja Rani 2013 Blu-ray 1080p AVC DTS-HD MA 5.1
Disc Size: 43,097,467,682 bytes
Protection: AACS
BD-Java: No
Playlist: 00000.MPLS
Size: 42,231,227,904 bytes
Length: 2:44:10.298
Total Bitrate: 34.30 Mbps
Video: MPEG-4 AVC Video / 29977 kbps / 1080p / 23.976 fps / 16:9 / High Profile 4.1
Audio: English / DTS-HD Master Audio / 5.1 / 48 kHz / 2556 kbps / 16-bit (DTS Core: 5.1 / 48 kHz / 1509 kbps / 16-bit)
Subtitle: English / 34.981 kbps


Raja Rani Download Links:


Code:

Code:

Code:

Code:

Code:
One Folder for Tamil HD Movies
Code:
Important Note: The above folder will be updated ASAP. If the links are dead. Movies will be updated Regularly.