Theeya Velai Seiyyanum Kumaru 2014 Blu-ray 1080p AVC DTS 37.88 GB



DISC INFO:

Disc Title: [BD50] Theeya Velai Seiyyanum Kumaru 2014 Blu-ray 1080p AVC DTS-HD MA 5.1
Disc Size: 40,669,657,566 bytes
Protection: AACS
BD-Java: No
BDInfo: 0.5.8

PLAYLIST REPORT:

Name: 00000.MPLS
Length: 2:18:16.204 (h:m:s.ms)
Size: 40,473,698,304 bytes
Total Bitrate: 39.03 Mbps

VIDEO:

Codec Bitrate Description
----- ------- -----------
MPEG-4 AVC Video 29922 kbps 1080p / 23.976 fps / 16:9 / High Profile 4.1

AUDIO:

Codec Language Bitrate Description
----- -------- ------- -----------
DTS-HD Master Audio English 2427 kbps 5.1 / 48 kHz / 2427 kbps / 16-bit (DTS Core: 5.1 / 48 kHz / 1509 kbps / 16-bit)
LPCM Audio English 4608 kbps 5.1 / 48 kHz / 4608 kbps / 16-bit

SUBTITLES:

Codec Language Bitrate Description
----- -------- ------- -----------
Presentation Graphics English 44.445 kbps

FILES:

Name Time In Length Size Total Bitrate
---- ------- ------ ---- -------------
00000.M2TS 0:00:00.000 2:18:09.197 40,473,360,384 39,061
00004.M2TS 2:18:09.197 0:00:02.001 43,008 172
00003.M2TS 2:18:11.199 0:00:05.004 294,912 471

QUICK SUMMARY:

Disc Title: [BD50] Theeya Velai Seiyyanum Kumaru 2014 Blu-ray 1080p AVC DTS-HD MA 5.1
Disc Size: 40,669,657,566 bytes
Protection: AACS
BD-Java: No
Playlist: 00000.MPLS
Size: 40,473,698,304 bytes
Length: 2:18:16.204
Total Bitrate: 39.03 Mbps
Video: MPEG-4 AVC Video / 29922 kbps / 1080p / 23.976 fps / 16:9 / High Profile 4.1
Audio: English / DTS-HD Master Audio / 5.1 / 48 kHz / 2427 kbps / 16-bit (DTS Core: 5.1 / 48 kHz / 1509 kbps / 16-bit)
Audio: English / LPCM Audio / 5.1 / 48 kHz / 4608 kbps / 16-bit
Subtitle: English / 44.445 kbps


Theeya Velai Seiyyanum Kumaru Download Links:


Code:

Code:

Code:

Code:

Code:
One Folder for Tamil HD Movies
Code:
Important Note: The above folder will be updated ASAP. If the links are dead. Movies will be updated Regularly.