Support us
Support M-HDdl
Results 1 to 1 of 1
  1. #1
    Junior Member
    This is prathaprabhu's Country Flag

    prathaprabhu's Avatar
    Join Date
    Aug 2013
    Posts
    103
    Total 'Thanks' Received by This User
    For This Post
    0

    Total
    0
    Rep Power
    5

    MULTI Vishwaroopam (2013) BD50 Bluray Untouched

    Vishwaroopam 2013 Blu-ray 1080p AVC DTS 39.60 GB



    DISC INFO:

    Disc Title: [BD50] Vishwaroopam 2013 Blu-ray 1080p AVC DTS-HD MA 5.1
    Disc Size: 42,515,646,339 bytes
    Protection: AACS
    BD-Java: No
    BDInfo: 0.5.8

    PLAYLIST REPORT:

    Name: 00000.MPLS
    Length: 2:29:00.514 (h:m:s.ms)
    Size: 42,330,724,416 bytes
    Total Bitrate: 37.88 Mbps

    VIDEO:

    Codec Bitrate Description
    ----- ------- -----------
    MPEG-4 AVC Video 28924 kbps 1080p / 23.976 fps / 16:9 / High Profile 4.1

    AUDIO:

    Codec Language Bitrate Description
    ----- -------- ------- -----------
    DTS-HD Master Audio English 2355 kbps 5.1 / 48 kHz / 2355 kbps / 16-bit (DTS Core: 5.1 / 48 kHz / 1509 kbps / 16-bit)
    LPCM Audio English 4608 kbps 5.1 / 48 kHz / 4608 kbps / 16-bit

    SUBTITLES:

    Codec Language Bitrate Description
    ----- -------- ------- -----------
    Presentation Graphics English 17.605 kbps

    FILES:

    Name Time In Length Size Total Bitrate
    ---- ------- ------ ---- -------------
    00001.M2TS 0:00:00.000 0:00:05.046 8,005,056 12,586
    00000.M2TS 0:00:05.046 2:28:48.461 42,322,381,440 37,921
    00005.M2TS 2:28:53.507 0:00:02.001 43,008 172
    00004.M2TS 2:28:55.509 0:00:05.004 294,912 471

    QUICK SUMMARY:

    Disc Title: [BD50] Vishwaroopam 2013 Blu-ray 1080p AVC DTS-HD MA 5.1
    Disc Size: 42,515,646,339 bytes
    Protection: AACS
    BD-Java: No
    Playlist: 00000.MPLS
    Size: 42,330,724,416 bytes
    Length: 2:29:00.514
    Total Bitrate: 37.88 Mbps
    Video: MPEG-4 AVC Video / 28924 kbps / 1080p / 23.976 fps / 16:9 / High Profile 4.1
    Audio: English / DTS-HD Master Audio / 5.1 / 48 kHz / 2355 kbps / 16-bit (DTS Core: 5.1 / 48 kHz / 1509 kbps / 16-bit)
    Audio: English / LPCM Audio / 5.1 / 48 kHz / 4608 kbps / 16-bit
    Subtitle: English / 17.605 kbps


    Vishwaroopam Download Links:


    Code:

    Code:

    Code:

    Code:

    Code:
    One Folder for Tamil HD Movies
    Code:
    Important Note: The above folder will be updated ASAP. If the links are dead. Movies will be updated Regularly.
    Last edited by prathaprabhu; 03-05-2015 at 10:00 PM.
    Reply With Quote Reply With Quote
    Send PM  




Similar Threads

  1. [MULTI] 42 (2013) BD50 Bluray Untouched
    By m-hddl in forum Untouched Blu-Ray Discs
    Replies: 8
    Last Post: 05-23-2017, 07:51 PM
  2. [MULTI] Last Vegas 2013 BD50 Untouched
    By Jackiechan in forum Graveyard
    Replies: 1
    Last Post: 05-28-2014, 01:11 PM
  3. [Others] Thalaivaa (2013) BD50 Blu-ray Untouched
    By prathaprabhu in forum Graveyard
    Replies: 0
    Last Post: 01-21-2014, 09:21 AM
  4. [MULTI] Vishwaroopam (2013) Untouched BluRay 1080p AVC DTS HD MA -TTT
    By BollyCorner in forum Graveyard
    Replies: 2
    Last Post: 12-20-2013, 05:19 PM
  5. Replies: 0
    Last Post: 04-18-2013, 02:29 AM

Tags for this Thread

Bookmarks

Posting Permissions

  • You may not post new threads
  • You may not post replies
  • You may not post attachments
  • You may not edit your posts
  •