Ayngaran Song Stars HD Vol 4 2012 Blu-ray 1080p AVC DTS 42.38 GB



DISC INFO:

Disc Title: [BD50] Ayngaran Song Stars HD Vol 4 2012 Blu-ray 1080p AVC DTS-HD MA 5.1
Disc Size: 45,507,068,050 bytes
Protection: AACS
BD-Java: No
BDInfo: 0.5.8

PLAYLIST REPORT:

Name: 00000.MPLS
Length: 2:39:55.585 (h:m:s.ms)
Size: 45,148,074,432 bytes
Total Bitrate: 37.64 Mbps

VIDEO:

Codec Bitrate Description
----- ------- -----------
MPEG-4 AVC Video 28127 kbps 1080p / 23.976 fps / 16:9 / High Profile 4.1

AUDIO:

Codec Language Bitrate Description
----- -------- ------- -----------
DTS-HD Master Audio English 2915 kbps 5.1 / 48 kHz / 2915 kbps / 16-bit (DTS Core: 5.1 / 48 kHz / 1509 kbps / 16-bit)
LPCM Audio English 4608 kbps 5.1 / 48 kHz / 4608 kbps / 16-bit

SUBTITLES:

Codec Language Bitrate Description
----- -------- ------- -----------
Presentation Graphics English 24.124 kbps

FILES:

Name Time In Length Size Total Bitrate
---- ------- ------ ---- -------------
00000.M2TS 0:00:00.000 2:39:45.575 45,147,675,072 37,680
00009.M2TS 2:39:45.575 0:00:05.004 104,448 167
00006.M2TS 2:39:50.580 0:00:05.004 294,912 471

QUICK SUMMARY:

Disc Title: [BD50] Ayngaran Song Stars HD Vol 4 2012 Blu-ray 1080p AVC DTS-HD MA 5.1
Disc Size: 45,507,068,050 bytes
Protection: AACS
BD-Java: No
Playlist: 00000.MPLS
Size: 45,148,074,432 bytes
Length: 2:39:55.585
Total Bitrate: 37.64 Mbps
Video: MPEG-4 AVC Video / 28127 kbps / 1080p / 23.976 fps / 16:9 / High Profile 4.1
Audio: English / DTS-HD Master Audio / 5.1 / 48 kHz / 2915 kbps / 16-bit (DTS Core: 5.1 / 48 kHz / 1509 kbps / 16-bit)
Audio: English / LPCM Audio / 5.1 / 48 kHz / 4608 kbps / 16-bit
Subtitle: English / 24.124 kbps


Ayngaran Song Stars HD Vol 4 Download Links:


Code:

Code:

Code:

Code:

Code:
One Folder for Tamil HD Movies
Code:
Important Note: The above folder will be updated ASAP. If the links are dead. Movies will be updated Regularly.