Best Songs Of 2010 Vol 2 Blu-ray 1080p AVC DTS 44.03 GB



DISC INFO:

Disc Title: [BD50] Best Songs Of 2010 Vol 2 2010 Blu-ray 1080p AVC DTS-HD MA 5.1
Disc Size: 47,277,851,079 bytes
Protection: AACS
BD-Java: No
BDInfo: 0.5.8

PLAYLIST REPORT:

Name: 00000.MPLS
Length: 2:48:33.853 (h:m:s.ms)
Size: 46,946,051,328 bytes
Total Bitrate: 37.13 Mbps

VIDEO:

Codec Bitrate Description
----- ------- -----------
MPEG-4 AVC Video 28474 kbps 1080p / 23.976 fps / 16:9 / High Profile 4.1

AUDIO:

Codec Language Bitrate Description
----- -------- ------- -----------
DTS-HD Master Audio English 2674 kbps 5.1 / 48 kHz / 2674 kbps / 16-bit (DTS Core: 5.1 / 48 kHz / 1509 kbps / 16-bit)
Dolby TrueHD Audio English 2241 kbps 5.1 / 48 kHz / 2241 kbps / 16-bit (AC3 Embedded: 5.1 / 48 kHz / 640 kbps)

SUBTITLES:

Codec Language Bitrate Description
----- -------- ------- -----------
Presentation Graphics English 23.310 kbps

FILES:

Name Time In Length Size Total Bitrate
---- ------- ------ ---- -------------
00000.M2TS 0:00:00.000 2:48:23.843 46,945,369,344 37,170
00010.M2TS 2:48:23.843 0:00:05.004 387,072 619
00007.M2TS 2:48:28.848 0:00:05.004 294,912 471

QUICK SUMMARY:

Disc Title: [BD50] Best Songs Of 2010 Vol 2 2010 Blu-ray 1080p AVC DTS-HD MA 5.1
Disc Size: 47,277,851,079 bytes
Protection: AACS
BD-Java: No
Playlist: 00000.MPLS
Size: 46,946,051,328 bytes
Length: 2:48:33.853
Total Bitrate: 37.13 Mbps
Video: MPEG-4 AVC Video / 28474 kbps / 1080p / 23.976 fps / 16:9 / High Profile 4.1
Audio: English / DTS-HD Master Audio / 5.1 / 48 kHz / 2674 kbps / 16-bit (DTS Core: 5.1 / 48 kHz / 1509 kbps / 16-bit)
Audio: English / Dolby TrueHD Audio / 5.1 / 48 kHz / 2241 kbps / 16-bit (AC3 Embedded: 5.1 / 48 kHz / 640 kbps)
Subtitle: English / 23.310 kbps


Best Songs Of 2010 Download Links:


Code:

Code:

Code:

Code:

Code:
One Folder for Tamil HD Movies
Code:
Important Note: The above folder will be updated ASAP. If the links are dead. Movies will be updated Regularly.