Support us
Support M-HDdl
Page 1 of 2 12 LastLast
Results 1 to 10 of 20
  1. #1
    Junior Member
    This is prathaprabhu's Country Flag

    prathaprabhu's Avatar
    Join Date
    Aug 2013
    Posts
    103
    Total 'Thanks' Received by This User
    For This Post
    0

    Total
    0
    Rep Power
    5

    MULTI Indian Bluray Movies Collection (1995-2014) - BD25 & BD50 Untouched

    Indian Bluray Movies Collection (1995-2014) - BD25 & BD50 Untouched

    Biriyani 2013 Blu-ray 1080p AVC DTS 37.62 GB



    Code:


    Biriyani Download Links:


    Code:

    Code:

    Code:

    Code:
    One Folder for Tamil HD Movies
    Code:
    Important Note: The above folder will be updated ASAP. If the links are dead. Movies will be updated Regularly.
    Reply With Quote Reply With Quote
    Send PM  



  • #2
    Junior Member
    This is prathaprabhu's Country Flag

    prathaprabhu's Avatar
    Join Date
    Aug 2013
    Posts
    103
    Total 'Thanks' Received by This User
    For This Post
    0

    Total
    0
    Rep Power
    5
    Cuckoo 2014 Blu-ray 1080p AVC LPCM & DTS 42.48 GB



    DISC INFO:

    Disc Title: Cuckoo 2014 Blu-ray 1080p AVC LPCM & DTS-HD MA 5.1
    Disc Size: 45,620,377,062 bytes
    Protection: AACS
    BD-Java: No
    BDInfo: 0.5.8

    PLAYLIST REPORT:

    Name: 00000.MPLS
    Length: 2:35:01.292 (h:m:s.ms)
    Size: 0 bytes
    Total Bitrate: 0.00 Mbps

    VIDEO:

    Codec Bitrate Description
    ----- ------- -----------
    MPEG-4 AVC Video 0 kbps 1080p / 23.976 fps / 16:9 / High Profile 4.1

    AUDIO:

    Codec Language Bitrate Description
    ----- -------- ------- -----------
    DTS-HD Master Audio English 0 kbps 5.1 / 48 kHz / 16-bit (DTS Core: 5.1 / 48 kHz / 1509 kbps / 16-bit)
    LPCM Audio English 4608 kbps 5.1 / 48 kHz / 4608 kbps / 16-bit

    SUBTITLES:

    Codec Language Bitrate Description
    ----- -------- ------- -----------
    Presentation Graphics English 0.000 kbps

    FILES:

    Name Time In Length Size Total Bitrate
    ---- ------- ------ ---- -------------
    00009.M2TS 0:00:00.000 0:00:05.004 0 0
    00000.M2TS 0:00:05.004 2:34:49.280 0 0
    00005.M2TS 2:34:54.285 0:00:02.001 0 0
    00004.M2TS 2:34:56.287 0:00:05.004 0 0

    QUICK SUMMARY:

    Disc Title: Cuckoo 2014 Blu-ray 1080p AVC LPCM & DTS-HD MA 5.1
    Disc Size: 45,620,377,062 bytes
    Protection: AACS
    BD-Java: No
    Playlist: 00000.MPLS
    Size: 0 bytes
    Length: 2:35:01.292
    Total Bitrate: 0.00 Mbps
    Video: MPEG-4 AVC Video / 0 kbps / 1080p / 23.976 fps / 16:9 / High Profile 4.1
    Audio: English / DTS-HD Master Audio / 5.1 / 48 kHz / 16-bit (DTS Core: 5.1 / 48 kHz / 1509 kbps / 16-bit)
    Audio: English / LPCM Audio / 5.1 / 48 kHz / 4608 kbps / 16-bit
    Subtitle: English / 0.000 kbps


    Cuckoo Download Links:


    Code:

    Code:

    Code:

    Code:
    One Folder for Tamil HD Movies
    Code:
    Important Note: The above folder will be updated ASAP. If the links are dead. Movies will be updated Regularly.
    Reply With Quote Reply With Quote
    Send PM  

  • #3
    Junior Member
    This is prathaprabhu's Country Flag

    prathaprabhu's Avatar
    Join Date
    Aug 2013
    Posts
    103
    Total 'Thanks' Received by This User
    For This Post
    0

    Total
    0
    Rep Power
    5
    Mundasupatti 2014 Blu-ray 1080p AVC DTS 39.99 GB



    DISC INFO:

    Disc Title: Mundasupatti 2014 Blu-ray 1080p AVC LPCM & DTS-HD MA 5.1
    Disc Size: 42,933,678,768 bytes
    Protection: AACS
    BD-Java: No
    BDInfo: 0.5.8

    PLAYLIST REPORT:

    Name: 00000.MPLS
    Length: 2:25:30.596 (h:m:s.ms)
    Size: 0 bytes
    Total Bitrate: 0.00 Mbps

    VIDEO:

    Codec Bitrate Description
    ----- ------- -----------
    MPEG-4 AVC Video 0 kbps 1080p / 23.976 fps / 16:9 / High Profile 4.1

    AUDIO:

    Codec Language Bitrate Description
    ----- -------- ------- -----------
    DTS-HD Master Audio English 0 kbps 5.1 / 48 kHz / 16-bit (DTS Core: 5.1 / 48 kHz / 1509 kbps / 16-bit)
    LPCM Audio English 3840 kbps 5.0 / 48 kHz / 3840 kbps / 16-bit

    SUBTITLES:

    Codec Language Bitrate Description
    ----- -------- ------- -----------
    Presentation Graphics English 0.000 kbps

    FILES:

    Name Time In Length Size Total Bitrate
    ---- ------- ------ ---- -------------
    00009.M2TS 0:00:00.000 0:00:05.004 0 0
    00000.M2TS 0:00:05.004 2:25:18.584 0 0
    00005.M2TS 2:25:23.589 0:00:02.001 0 0
    00004.M2TS 2:25:25.591 0:00:05.004 0 0

    QUICK SUMMARY:

    Disc Title: Mundasupatti 2014 Blu-ray 1080p AVC LPCM & DTS-HD MA 5.1
    Disc Size: 42,933,678,768 bytes
    Protection: AACS
    BD-Java: No
    Playlist: 00000.MPLS
    Size: 0 bytes
    Length: 2:25:30.596
    Total Bitrate: 0.00 Mbps
    Video: MPEG-4 AVC Video / 0 kbps / 1080p / 23.976 fps / 16:9 / High Profile 4.1
    Audio: English / DTS-HD Master Audio / 5.1 / 48 kHz / 16-bit (DTS Core: 5.1 / 48 kHz / 1509 kbps / 16-bit)
    Audio: English / LPCM Audio / 5.0 / 48 kHz / 3840 kbps / 16-bit
    Subtitle: English / 0.000 kbps


    Mundasupatti Download Links:


    Code:

    Code:

    Code:

    Code:
    One Folder for Tamil HD Movies
    Code:
    Important Note: The above folder will be updated ASAP. If the links are dead. Movies will be updated Regularly.
    Reply With Quote Reply With Quote
    Send PM  

  • #4
    Junior Member
    This is prathaprabhu's Country Flag

    prathaprabhu's Avatar
    Join Date
    Aug 2013
    Posts
    103
    Total 'Thanks' Received by This User
    For This Post
    0

    Total
    0
    Rep Power
    5
    Velayudham 2011 Blu-ray 1080p AVC DTS 42.70 GB[/B]



    DISC INFO:

    Disc Title: [BD50] Velayudham 2011 Blu-ray 1080p AVC DTS-HD MA 5.1
    Disc Size: 45,847,490,863 bytes
    Protection: AACS
    BD-Java: No
    BDInfo: 0.5.8

    PLAYLIST REPORT:

    Name: 00000.MPLS
    Length: 2:46:43.743 (h:m:s.ms)
    Size: 45,576,851,904 bytes
    Total Bitrate: 36.45 Mbps

    VIDEO:

    Codec Bitrate Description
    ----- ------- -----------
    MPEG-4 AVC Video 28465 kbps 1080p / 23.976 fps / 16:9 / High Profile 4.1

    AUDIO:

    Codec Language Bitrate Description
    ----- -------- ------- -----------
    LPCM Audio English 4608 kbps 5.1 / 48 kHz / 4608 kbps / 16-bit
    DTS Audio English 1509 kbps 5.1 / 48 kHz / 1509 kbps / 24-bit

    SUBTITLES:

    Codec Language Bitrate Description
    ----- -------- ------- -----------
    Presentation Graphics English 29.181 kbps

    FILES:

    Name Time In Length Size Total Bitrate
    ---- ------- ------ ---- -------------
    00000.M2TS 0:00:00.000 2:46:38.738 45,576,556,992 36,466
    00008.M2TS 2:46:38.738 0:00:05.004 294,912 471

    QUICK SUMMARY:

    Disc Title: [BD50] Velayudham 2011 Blu-ray 1080p AVC DTS-HD MA 5.1
    Disc Size: 45,847,490,863 bytes
    Protection: AACS
    BD-Java: No
    Playlist: 00000.MPLS
    Size: 45,576,851,904 bytes
    Length: 2:46:43.743
    Total Bitrate: 36.45 Mbps
    Video: MPEG-4 AVC Video / 28465 kbps / 1080p / 23.976 fps / 16:9 / High Profile 4.1
    Audio: English / LPCM Audio / 5.1 / 48 kHz / 4608 kbps / 16-bit
    Audio: English / DTS Audio / 5.1 / 48 kHz / 1509 kbps / 24-bit
    Subtitle: English / 29.181 kbps


    Velayudham Download Links:


    Code:

    Code:

    Code:

    Code:
    One Folder for Tamil HD Movies
    Code:
    Important Note: The above folder will be updated ASAP. If the links are dead. Movies will be updated Regularly.
    Reply With Quote Reply With Quote
    Send PM  

  • #5
    Junior Member
    This is prathaprabhu's Country Flag

    prathaprabhu's Avatar
    Join Date
    Aug 2013
    Posts
    103
    Total 'Thanks' Received by This User
    For This Post
    0

    Total
    0
    Rep Power
    5
    Best Songs Of 2010 Vol 2 Blu-ray 1080p AVC DTS 44.03 GB



    DISC INFO:

    Disc Title: [BD50] Best Songs Of 2010 Vol 2 2010 Blu-ray 1080p AVC DTS-HD MA 5.1
    Disc Size: 47,277,851,079 bytes
    Protection: AACS
    BD-Java: No
    BDInfo: 0.5.8

    PLAYLIST REPORT:

    Name: 00000.MPLS
    Length: 2:48:33.853 (h:m:s.ms)
    Size: 46,946,051,328 bytes
    Total Bitrate: 37.13 Mbps

    VIDEO:

    Codec Bitrate Description
    ----- ------- -----------
    MPEG-4 AVC Video 28474 kbps 1080p / 23.976 fps / 16:9 / High Profile 4.1

    AUDIO:

    Codec Language Bitrate Description
    ----- -------- ------- -----------
    DTS-HD Master Audio English 2674 kbps 5.1 / 48 kHz / 2674 kbps / 16-bit (DTS Core: 5.1 / 48 kHz / 1509 kbps / 16-bit)
    Dolby TrueHD Audio English 2241 kbps 5.1 / 48 kHz / 2241 kbps / 16-bit (AC3 Embedded: 5.1 / 48 kHz / 640 kbps)

    SUBTITLES:

    Codec Language Bitrate Description
    ----- -------- ------- -----------
    Presentation Graphics English 23.310 kbps

    FILES:

    Name Time In Length Size Total Bitrate
    ---- ------- ------ ---- -------------
    00000.M2TS 0:00:00.000 2:48:23.843 46,945,369,344 37,170
    00010.M2TS 2:48:23.843 0:00:05.004 387,072 619
    00007.M2TS 2:48:28.848 0:00:05.004 294,912 471

    QUICK SUMMARY:

    Disc Title: [BD50] Best Songs Of 2010 Vol 2 2010 Blu-ray 1080p AVC DTS-HD MA 5.1
    Disc Size: 47,277,851,079 bytes
    Protection: AACS
    BD-Java: No
    Playlist: 00000.MPLS
    Size: 46,946,051,328 bytes
    Length: 2:48:33.853
    Total Bitrate: 37.13 Mbps
    Video: MPEG-4 AVC Video / 28474 kbps / 1080p / 23.976 fps / 16:9 / High Profile 4.1
    Audio: English / DTS-HD Master Audio / 5.1 / 48 kHz / 2674 kbps / 16-bit (DTS Core: 5.1 / 48 kHz / 1509 kbps / 16-bit)
    Audio: English / Dolby TrueHD Audio / 5.1 / 48 kHz / 2241 kbps / 16-bit (AC3 Embedded: 5.1 / 48 kHz / 640 kbps)
    Subtitle: English / 23.310 kbps


    Best Songs Of 2010 Download Links:


    Code:

    Code:

    Code:

    Code:
    One Folder for Tamil HD Movies
    Code:
    Important Note: The above folder will be updated ASAP. If the links are dead. Movies will be updated Regularly.
    Reply With Quote Reply With Quote
    Send PM  

  • #6
    Junior Member
    This is prathaprabhu's Country Flag

    prathaprabhu's Avatar
    Join Date
    Aug 2013
    Posts
    103
    Total 'Thanks' Received by This User
    For This Post
    0

    Total
    0
    Rep Power
    5
    Ayan 2009 Blu-ray 1080p AVC DTS 45.00 GB



    DISC INFO:

    Disc Title: [BD50] Ayan 2009 Blu-ray 1080p AVC DTS-HD MA 5.1
    Disc Size: 48,321,196,093 bytes
    Protection: AACS
    BD-Java: No
    Extras: 50Hz Content
    BDInfo: 0.5.8

    PLAYLIST REPORT:

    Name: 00000.MPLS
    Length: 2:42:31.875 (h:m:s.ms)
    Size: 41,355,825,984 bytes
    Total Bitrate: 33.93 Mbps

    VIDEO:

    Codec Bitrate Description
    ----- ------- -----------
    MPEG-4 AVC Video 24975 kbps 1080p / 24 fps / 16:9 / High Profile 4.1

    AUDIO:

    Codec Language Bitrate Description
    ----- -------- ------- -----------
    DTS-HD Master Audio English 2494 kbps 5.1 / 48 kHz / 2494 kbps / 16-bit (DTS Core: 5.1 / 48 kHz / 1509 kbps / 16-bit)
    LPCM Audio English 4608 kbps 5.1 / 48 kHz / 4608 kbps / 16-bit

    SUBTITLES:

    Codec Language Bitrate Description
    ----- -------- ------- -----------
    Presentation Graphics English 37.458 kbps

    FILES:

    Name Time In Length Size Total Bitrate
    ---- ------- ------ ---- -------------
    00000.M2TS 0:00:00.000 2:42:22.125 41,355,236,160 33,960
    00014.M2TS 2:42:22.125 0:00:09.750 589,824 484

    QUICK SUMMARY:

    Disc Title: [BD50] Ayan 2009 Blu-ray 1080p AVC DTS-HD MA 5.1
    Disc Size: 48,321,196,093 bytes
    Protection: AACS
    BD-Java: No
    Playlist: 00000.MPLS
    Size: 41,355,825,984 bytes
    Length: 2:42:31.875
    Total Bitrate: 33.93 Mbps
    Video: MPEG-4 AVC Video / 24975 kbps / 1080p / 24 fps / 16:9 / High Profile 4.1
    Audio: English / DTS-HD Master Audio / 5.1 / 48 kHz / 2494 kbps / 16-bit (DTS Core: 5.1 / 48 kHz / 1509 kbps / 16-bit)
    Audio: English / LPCM Audio / 5.1 / 48 kHz / 4608 kbps / 16-bit
    Subtitle: English / 37.458 kbps


    Ayan Download Links:


    Code:

    Code:

    Code:

    Code:
    One Folder for Tamil HD Movies
    Code:
    Important Note: The above folder will be updated ASAP. If the links are dead. Movies will be updated Regularly.
    Reply With Quote Reply With Quote
    Send PM  

  • #7
    Junior Member
    This is prathaprabhu's Country Flag

    prathaprabhu's Avatar
    Join Date
    Aug 2013
    Posts
    103
    Total 'Thanks' Received by This User
    For This Post
    0

    Total
    0
    Rep Power
    5
    Aadhavan 2009 Blu-ray 1080p AVC DTS 39.66 GB



    DISC INFO:

    Disc Title: [BD50] Aadhavan 2009 Blu-ray 1080p AVC DTS-HD MA 5.1
    Disc Size: 42,579,335,369 bytes
    Protection: AACS
    BD-Java: No
    BDInfo: 0.5.8

    PLAYLIST REPORT:

    Name: 00000.MPLS
    Length: 2:46:49.916 (h:m:s.ms)
    Size: 42,306,641,472 bytes
    Total Bitrate: 33.81 Mbps

    VIDEO:

    Codec Bitrate Description
    ----- ------- -----------
    MPEG-4 AVC Video 24963 kbps 1080p / 24 fps / 16:9 / High Profile 4.1

    AUDIO:

    Codec Language Bitrate Description
    ----- -------- ------- -----------
    DTS-HD Master Audio English 2388 kbps 5.1 / 48 kHz / 2388 kbps / 16-bit (DTS Core: 5.1 / 48 kHz / 1509 kbps / 16-bit)
    LPCM Audio English 4608 kbps 5.1 / 48 kHz / 4608 kbps / 16-bit

    SUBTITLES:

    Codec Language Bitrate Description
    ----- -------- ------- -----------
    Presentation Graphics English 46.294 kbps

    FILES:

    Name Time In Length Size Total Bitrate
    ---- ------- ------ ---- -------------
    00000.M2TS 0:00:00.000 2:46:34.916 42,305,738,304 33,862
    00006.M2TS 2:46:34.916 0:00:15.000 903,168 482

    QUICK SUMMARY:

    Disc Title: [BD50] Aadhavan 2009 Blu-ray 1080p AVC DTS-HD MA 5.1
    Disc Size: 42,579,335,369 bytes
    Protection: AACS
    BD-Java: No
    Playlist: 00000.MPLS
    Size: 42,306,641,472 bytes
    Length: 2:46:49.916
    Total Bitrate: 33.81 Mbps
    Video: MPEG-4 AVC Video / 24963 kbps / 1080p / 24 fps / 16:9 / High Profile 4.1
    Audio: English / DTS-HD Master Audio / 5.1 / 48 kHz / 2388 kbps / 16-bit (DTS Core: 5.1 / 48 kHz / 1509 kbps / 16-bit)
    Audio: English / LPCM Audio / 5.1 / 48 kHz / 4608 kbps / 16-bit
    Subtitle: English / 46.294 kbps


    Aadhavan Download Links:


    Code:

    Code:

    Code:

    Code:
    One Folder for Tamil HD Movies
    Code:
    Important Note: The above folder will be updated ASAP. If the links are dead. Movies will be updated Regularly.
    Reply With Quote Reply With Quote
    Send PM  

  • #8
    Junior Member
    This is prathaprabhu's Country Flag

    prathaprabhu's Avatar
    Join Date
    Aug 2013
    Posts
    103
    Total 'Thanks' Received by This User
    For This Post
    0

    Total
    0
    Rep Power
    5
    Angadi Theru 2010 Blu-ray 1080p AVC DTS 39.66 GB



    DISC INFO:

    Disc Title: [BD50] Angadi Theru 2010 Blu-ray 1080p AVC DTS-HD MA 5.1
    Disc Size: 46,581,498,127 bytes
    Protection: AACS
    BD-Java: No
    BDInfo: 0.5.8

    PLAYLIST REPORT:

    Name: 00000.MPLS
    Length: 2:37:54.715 (h:m:s.ms)
    Size: 46,185,839,616 bytes
    Total Bitrate: 39.00 Mbps

    VIDEO:

    Codec Bitrate Description
    ----- ------- -----------
    MPEG-4 AVC Video 29961 kbps 1080p / 23.976 fps / 16:9 / High Profile 4.1

    AUDIO:

    Codec Language Bitrate Description
    ----- -------- ------- -----------
    DTS-HD Master Audio English 2361 kbps 5.1 / 48 kHz / 2361 kbps / 16-bit (DTS Core: 5.1 / 48 kHz / 1509 kbps / 16-bit)
    LPCM Audio English 4608 kbps 5.1 / 48 kHz / 4608 kbps / 16-bit

    SUBTITLES:

    Codec Language Bitrate Description
    ----- -------- ------- -----------
    Presentation Graphics English 40.179 kbps

    FILES:

    Name Time In Length Size Total Bitrate
    ---- ------- ------ ---- -------------
    00000.M2TS 0:00:00.000 2:37:49.710 46,185,587,712 39,017
    00008.M2TS 2:37:49.710 0:00:05.004 251,904 403

    QUICK SUMMARY:

    Disc Title: [BD50] Angadi Theru 2010 Blu-ray 1080p AVC DTS-HD MA 5.1
    Disc Size: 46,581,498,127 bytes
    Protection: AACS
    BD-Java: No
    Playlist: 00000.MPLS
    Size: 46,185,839,616 bytes
    Length: 2:37:54.715
    Total Bitrate: 39.00 Mbps
    Video: MPEG-4 AVC Video / 29961 kbps / 1080p / 23.976 fps / 16:9 / High Profile 4.1
    Audio: English / DTS-HD Master Audio / 5.1 / 48 kHz / 2361 kbps / 16-bit (DTS Core: 5.1 / 48 kHz / 1509 kbps / 16-bit)
    Audio: English / LPCM Audio / 5.1 / 48 kHz / 4608 kbps / 16-bit
    Subtitle: English / 40.179 kbps


    Angadi Theru Download Links:


    Code:

    Code:

    Code:

    Code:
    One Folder for Tamil HD Movies
    Code:
    Important Note: The above folder will be updated ASAP. If the links are dead. Movies will be updated Regularly.
    Reply With Quote Reply With Quote
    Send PM  

  • #9
    Junior Member
    This is prathaprabhu's Country Flag

    prathaprabhu's Avatar
    Join Date
    Aug 2013
    Posts
    103
    Total 'Thanks' Received by This User
    For This Post
    0

    Total
    0
    Rep Power
    5
    Minnal Musical Rays HD Vol 3 2014 Seyons Blu-ray 1080p AVC DTS 39.85 GB



    DISC INFO:

    Disc Title: [BD50] Minnal Musical Rays HD Vol 3 2014 Seyons Blu-ray 1080p AVC DTS-HD MA 5.1
    Disc Size: 42,793,246,960 bytes
    Protection: AACS
    BD-Java: No
    BDInfo: 0.5.8

    PLAYLIST REPORT:

    Name: 00009.MPLS
    Length: 2:44:36.333 (h:m:s.ms)
    Size: 37,566,425,088 bytes
    Total Bitrate: 30.43 Mbps

    VIDEO:

    Codec Bitrate Description
    ----- ------- -----------
    MPEG-4 AVC Video 25870 kbps 1080p / 24 fps / 16:9 / High Profile 4.1

    AUDIO:

    Codec Language Bitrate Description
    ----- -------- ------- -----------
    DTS-HD Master Audio Tamil 2962 kbps 5.1 / 48 kHz / 2962 kbps / 16-bit (DTS Core: 5.1 / 48 kHz / 1509 kbps / 16-bit)

    SUBTITLES:

    Codec Language Bitrate Description
    ----- -------- ------- -----------
    Presentation Graphics English 27.553 kbps

    QUICK SUMMARY:

    Disc Title: [BD50] Minnal Musical Rays HD Vol 3 2014 Seyons Blu-ray 1080p AVC DTS-HD MA 5.1
    Disc Size: 42,793,246,960 bytes
    Protection: AACS
    BD-Java: No
    Playlist: 00009.MPLS
    Size: 37,566,425,088 bytes
    Length: 2:44:36.333
    Total Bitrate: 30.43 Mbps
    Video: MPEG-4 AVC Video / 25870 kbps / 1080p / 24 fps / 16:9 / High Profile 4.1
    Audio: Tamil / DTS-HD Master Audio / 5.1 / 48 kHz / 2962 kbps / 16-bit (DTS Core: 5.1 / 48 kHz / 1509 kbps / 16-bit)
    Subtitle: English / 27.553 kbps


    Minnal Musical Rays HD Songs Vol 3 Download Links:


    Code:

    Code:

    Code:

    Code:
    One Folder for Tamil HD Movies
    Code:
    Important Note: The above folder will be updated ASAP. If the links are dead. Movies will be updated Regularly.
    Reply With Quote Reply With Quote
    Send PM  

  • #10
    Junior Member
    This is prathaprabhu's Country Flag

    prathaprabhu's Avatar
    Join Date
    Aug 2013
    Posts
    103
    Total 'Thanks' Received by This User
    For This Post
    0

    Total
    0
    Rep Power
    5
    Madrasapattinam 2010 Blu-ray 1080p AVC DTS 39.85 GB



    DISC INFO:

    Disc Title: [BD50] Madrasapattinam 2010 Blu-ray 1080p AVC DTS-HD MA 5.1
    Disc Size: 42,798,351,856 bytes
    Protection: AACS
    BD-Java: No
    BDInfo: 0.5.8

    PLAYLIST REPORT:

    Name: 00000.MPLS
    Length: 2:45:47.520 (h:m:s.ms)
    Size: 42,474,070,272 bytes
    Total Bitrate: 34.16 Mbps

    VIDEO:

    Codec Bitrate Description
    ----- ------- -----------
    MPEG-4 AVC Video 29983 kbps 1080p / 23.976 fps / 16:9 / High Profile 4.1

    AUDIO:

    Codec Language Bitrate Description
    ----- -------- ------- -----------
    DTS-HD Master Audio English 2434 kbps 5.1 / 48 kHz / 2434 kbps / 16-bit (DTS Core: 5.1 / 48 kHz / 1509 kbps / 16-bit)

    SUBTITLES:

    Codec Language Bitrate Description
    ----- -------- ------- -----------
    Presentation Graphics English 17.789 kbps

    FILES:

    Name Time In Length Size Total Bitrate
    ---- ------- ------ ---- -------------
    00000.M2TS 0:00:00.000 2:45:42.515 42,473,775,360 34,175
    00006.M2TS 2:45:42.515 0:00:05.004 294,912 471

    QUICK SUMMARY:

    Disc Title: [BD50] Madrasapattinam 2010 Blu-ray 1080p AVC DTS-HD MA 5.1
    Disc Size: 42,798,351,856 bytes
    Protection: AACS
    BD-Java: No
    Playlist: 00000.MPLS
    Size: 42,474,070,272 bytes
    Length: 2:45:47.520
    Total Bitrate: 34.16 Mbps
    Video: MPEG-4 AVC Video / 29983 kbps / 1080p / 23.976 fps / 16:9 / High Profile 4.1
    Audio: English / DTS-HD Master Audio / 5.1 / 48 kHz / 2434 kbps / 16-bit (DTS Core: 5.1 / 48 kHz / 1509 kbps / 16-bit)
    Subtitle: English / 17.789 kbps


    Madrasapattinam Download Links:


    Code:

    Code:

    Code:

    Code:
    One Folder for Tamil HD Movies
    Code:
    Important Note: The above folder will be updated ASAP. If the links are dead. Movies will be updated Regularly.
    Reply With Quote Reply With Quote
    Send PM  


  • Page 1 of 2 12 LastLast

    Similar Threads

    1. Replies: 21
      Last Post: 06-25-2017, 06:37 PM
    2. [MULTI] Species (1995) BD25 Bluray Untouched
      By m-hddl in forum Graveyard
      Replies: 11
      Last Post: 02-19-2015, 04:43 PM
    3. [Others] Baatsha (1995) BD25 & BD50 Bluray Untouched
      By prathaprabhu in forum Graveyard
      Replies: 0
      Last Post: 09-25-2013, 07:21 PM
    4. [Others] Tamil BluRay Movies (1995-2013) BD25 & BD50
      By prathaprabhu in forum Graveyard
      Replies: 1
      Last Post: 09-24-2013, 01:15 PM

    Tags for this Thread

    Bookmarks

    Posting Permissions

    • You may not post new threads
    • You may not post replies
    • You may not post attachments
    • You may not edit your posts
    •