Support M-HDdl
Results 1 to 5 of 5
  1. #1
    Super Moderator
    This is anathema's Country Flag

    anathema's Avatar
    Join Date
    Mar 2012
    Posts
    1,352
    Total 'Thanks' Received by This User
    For This Post
    2

    Total
    1,746

    Ranks Showcase
    Total Ranks: 1

    Rep Power
    10

    Mirror Mirror (2012) 720p BluRay x264 AC3-HDChina









    Info

    General
    Complete name : Mirror.Mirror.2012.720p.BluRay.x264.AC3-HDChina.mkv
    Format : Matroska
    Format version : Version 2
    File size : 4.06 GiB
    Duration : 1h 48mn
    Overall bit rate : 5 368 Kbps
    Encoded date : UTC 2012-06-01 22:30:04

    Video
    ID : 1
    Format : AVC
    Format/Info : Advanced Video Codec
    Format profile : High@L4.1
    Format settings, CABAC : Yes
    Format settings, ReFrames : 9 frames
    Codec ID : V_MPEG4/ISO/AVC
    Duration : 1h 48mn
    Bit rate : 5 000 Kbps
    Width : 1 280 pixels
    Height : 720 pixels
    Display aspect ratio : 16:9
    Frame rate : 24.000 fps
    Color space : YUV
    Chroma subsampling : 4:2:0
    Bit depth : 8 bits
    Scan type : Progressive
    Bits/(Pixel*Frame) : 0.226
    Stream size : 3.69 GiB (91%)
    Writing library : x264 core 125 r2200 999b753
    Language : English
    Default : Yes
    Forced : No

    Audio
    ID : 2
    Format : AC-3
    Format/Info : Audio Coding 3
    Mode extension : CM (complete main)
    Format settings, Endianness : Big
    Codec ID : A_AC3
    Duration : 1h 48mn
    Bit rate mode : Constant
    Bit rate : 384 Kbps
    Channel(s) : 6 channels
    Channel positions : Front: L C R, Side: L R, LFE
    Sampling rate : 48.0 KHz
    Bit depth : 16 bits
    Compression mode : Lossy
    Stream size : 297 MiB (7%)
    Language : English
    Default : Yes
    Forced : No






















    400MB/Part - 5% Recovery Record

    JUMBOFILES
    You must reply to see the hidden information contained here.
    You do not have sufficient rights to see the hidden data contained here.




    You must reply to see the hidden information contained here.
    You do not have sufficient rights to see the hidden data contained here.




    You must reply to see the hidden information contained here.
    You do not have sufficient rights to see the hidden data contained here.



    You must reply to see the hidden information contained here.
    You do not have sufficient rights to see the hidden data contained here.




    You must reply to see the hidden information contained here.
    You do not have sufficient rights to see the hidden data contained here.





    m-hddl.com
    Last edited by anathema; 06-06-2012 at 10:24 AM.
    Reply With Quote Reply With Quote
    Send PM  

  2. Who Said Thanks:

    rath_iruzer (03-12-2013), YASHAR (06-06-2012)



  • #2
    Toxic Mushroom
    Guest Toxic Mushroom's Avatar
    Netload links are dead
    Reply With Quote Reply With Quote

  • #3
    Newcomer
    This is rath_iruzer's Country Flag

    rath_iruzer's Avatar
    Join Date
    Mar 2013
    Posts
    7
    Total 'Thanks' Received by This User
    For This Post
    0

    Total
    0
    Rep Power
    0
    thank you very much
    Reply With Quote Reply With Quote
    Send PM  

  • #4
    Junior Member
    This is jax2904's Country Flag

    jax2904's Avatar
    Join Date
    Aug 2013
    Posts
    31
    Total 'Thanks' Received by This User
    For This Post
    0

    Total
    0
    Rep Power
    0
    thank you!
    Reply With Quote Reply With Quote
    Send PM  

  • #5
    irh
    irh is offline
    Junior Member
    This is irh's Country Flag

    irh's Avatar
    Join Date
    Jun 2014
    Posts
    110
    Total 'Thanks' Received by This User
    For This Post
    0

    Total
    0
    Rep Power
    4
    thanks for the upload
    Reply With Quote Reply With Quote
    Send PM  


  • Similar Threads

    1. [MULTI] Mirror Mirror 2012 m720p BluRay x264-BiRD
      By anathema in forum Graveyard
      Replies: 70
      Last Post: 12-05-2015, 04:25 PM
    2. [MULTI] Mirror Mirror (2012) 720p BluRay DD5 1 x264-DON
      By Freedom35 in forum Graveyard
      Replies: 0
      Last Post: 06-26-2014, 07:21 PM
    3. [MULTI] Mirror Mirror (2012) 720p BluRay DD5 1 x264-DON
      By looper in forum Graveyard
      Replies: 0
      Last Post: 06-07-2014, 11:29 AM
    4. [MULTI] Mirror Mirror 2012 720p BluRay DD5.1 x264-DON
      By Lori.Yagami in forum Graveyard
      Replies: 0
      Last Post: 04-29-2014, 04:40 PM
    5. [MULTI] Mirror Mirror 2012 m576p BluRay x264-SINOVI
      By YASHAR in forum Graveyard
      Replies: 13
      Last Post: 07-06-2013, 01:37 PM

    Tags for this Thread

    Bookmarks

    Posting Permissions

    • You may not post new threads
    • You may not post replies
    • You may not post attachments
    • You may not edit your posts
    •