Ki and Ka 2016 BluRay 720p x264 - DDR








Source : BD50 @ DDR
Format : Matroska
Format version : Version 4 / Version 2
File size : 4.41 GiB
Duration : 2h 3mn
Overall bit rate : 5 114 Kbps
Encoded date : UTC 2016-06-27 15:32:15

Video
Format : AVC
Format/Info : Advanced Video Codec
Format profile : High@L4.1
Format settings, CABAC : Yes
Width : 1 280 pixels
Height : 544 pixels
Display aspect ratio : 2.35:1
Frame rate mode : Constant
Frame rate : 24.000 fps
Color space : YUV
Chroma subsampling : 4:2:0
Bit depth : 8 bits
Scan type : Progressive
Bits/(Pixel*Frame) : 0.268
Stream size : 3.86 GiB (87%)

Audio
Format : AC-3
Format/Info : Audio Coding 3
Codec ID : A_AC3
Bit rate mode : Constant
Bit rate : 640 Kbps
Channel(s) : 6 channels
Channel positions : Front: L C R, Side: L R, LFE
Sampling rate : 48.0 KHz
Frame rate : 31.250 fps (1536 spf)
Compression mode : Lossy
Stream size : 565 MiB (13%)

Subtitles : Eng & Arab(muxed)
Chapters : Yes














Single Link



Code:

Code:

1GB Link

Code:


Code: