Ghayal One Again (2016) 720p Bluray x264 AC3 5.1 ESub -DDR










Source = BD50 @ DDR
Format : Matroska
File size : 3.31 GiB
Duration : 2h 10mn
Overall bit rate : 3 645 Kbps

Video
Format : AVC
Format profile : High@L4.1
Bit rate : 3 000 Kbps
Width : 1 280 pixels
Height : 544 pixels
Display aspect ratio : 2.35:1
Frame rate mode : Constant
Frame rate : 24.000 fps
color space : YUV
Chroma subsampling : 4:2:0
Bit depth : 8 bits
Scan type : Progressive
Bits/(Pixel*Frame) : 0.180
Stream size : 2.72 GiB (82%)
Transfer characteristics : BT.709

Audio #1
Format : AC-3
Format/Info : Audio Coding 3
Mode extension : CM (complete main)
Format settings, Endianness : Big
Codec ID : A_AC3
Duration : 2h 10mn
Bit rate mode : Constant
Bit rate : 640 Kbps
Channel(s) : 6 channels
Channel positions : Front: L C R, Side: L R, LFE
Sampling rate : 48.0 KHz
Frame rate : 31.250 fps (1536 spf)
Compression mode : Lossy
Stream size : 595 MiB (18%)
Title : audio
Language : Hindi
Default : Yes
Forced : No
Chapters: YES

















Single Link


Code:


Code:

1GB Link


Code:

Code: