Support M-HDdl
Results 1 to 1 of 1
  1. #1
    Junior Member
    This is hd-man's Country Flag

    hd-man's Avatar
    Join Date
    Dec 2014
    Posts
    45
    Total 'Thanks' Received by This User
    For This Post
    0

    Total
    0
    Rep Power
    0

    OTHER Big Top Scooby-Doo! (2012) 1080p

    Big Top Scooby-Doo! (2012)





    ================================================== =================
    General
    -------------------------------------------------------------------
    Complete name : Big Top Scooby-Doo! (2012).mkv
    Format : Matroska
    Format version : Version 4 / Version 2
    File size : 1.97 GiB
    Duration : 1h 17mn
    Overall bit rate : 3 666 Kbps
    -------------------------------------------------------------------
    Video
    -------------------------------------------------------------------
    ID : 1
    Format : AVC
    Format/Info : Advanced Video Codec
    Format profile : [email protected]
    Format settings, CABAC : Yes
    Format settings, ReFrames : 4 frames
    Codec ID : V_MPEG4/ISO/AVC
    Duration : 1h 17mn
    Bit rate : 3 209 Kbps
    Width : 1 920 pixels
    Height : 1 080 pixels
    Display aspect ratio : 16:9
    Frame rate mode : Constant
    Frame rate : 25.000 fps
    Standard : Component
    Color space : YUV
    Chroma subsampling : 4:2:0
    Bit depth : 8 bits
    Scan type : Interlaced
    Scan order : Top Field First
    Bits/(Pixel*Frame) : 0.062
    Stream size : 1.73 GiB (88%)
    Default : Yes
    Forced : No
    Color primaries : BT.709
    Transfer characteristics : BT.709
    Matrix coefficients : BT.709

    -------------------------------------------------------------------
    Audio #1
    -------------------------------------------------------------------
    ID : 2
    Format : MPEG Audio
    Format version : Version 1
    Format profile : Layer 2
    Codec ID : A_MPEG/L2
    Codec ID/Hint : MP2
    Duration : 1h 17mn
    Bit rate mode : Constant
    Bit rate : 192 Kbps
    Channel(s) : 2 channels
    Sampling rate : 48.0 KHz
    Compression mode : Lossy
    Delay relative to video : 136ms
    Stream size : 106 MiB (5%)
    Title : English
    Language : English
    Default : Yes
    Forced : Yes

    -------------------------------------------------------------------
    Audio #2
    -------------------------------------------------------------------
    ID : 3
    Format : MPEG Audio
    Format version : Version 1
    Format profile : Layer 2
    Codec ID : A_MPEG/L2
    Codec ID/Hint : MP2
    Duration : 1h 17mn
    Bit rate mode : Constant
    Bit rate : 192 Kbps
    Channel(s) : 2 channels
    Sampling rate : 48.0 KHz
    Compression mode : Lossy
    Delay relative to video : 136ms
    Stream size : 106 MiB (5%)
    Title : Polish
    Language : Polish
    Default : No
    Forced : No
    ================================================== =

    Code:
    Last edited by hd-man; 06-25-2019 at 08:14 AM.
    Reply With Quote Reply With Quote
    Send PM  




Similar Threads

  1. Replies: 0
    Last Post: 10-06-2016, 03:03 PM
  2. [MULTI] Big Top Scooby-Doo 2012 1080p BluRay DTS x264-SPRiNTER
    By JohnSnow in forum Graveyard
    Replies: 0
    Last Post: 09-15-2016, 03:02 AM
  3. Replies: 1
    Last Post: 08-21-2015, 04:11 PM
  4. [MULTI] Big Top Scooby-Doo! (2012) 1080p WEB-DL
    By Netwolf_ in forum Graveyard
    Replies: 0
    Last Post: 05-05-2013, 05:54 PM
  5. Replies: 0
    Last Post: 03-29-2013, 06:16 PM

Tags for this Thread

Bookmarks

Posting Permissions

  • You may not post new threads
  • You may not post replies
  • You may not post attachments
  • You may not edit your posts
  •