Traffic 2016 HQ 1080p Blu-Ray x264 DTSHD-MA 5.1 ESub - DDR






Source : DDR Blu-ray
Format : Matroska
File size : 10.5 GiB
Duration : 1h 44mn
Overall bit rate : 14.4 Mbps
Encoded date : UTC 2016-07-17 20:12:30



Video
Format : AVC
Format/Info : Advanced Video Codec
Format profile : High@L4.1
Duration : 1h 44mn
Bit rate : 10 000 Kbps
Width : 1 920 pixels
Height : 816 pixels
Display aspect ratio : 2.35:1
Frame rate mode : Constant
Frame rate : 24.000 fps
Color space : YUV
Chroma subsampling : 4:2:0
Bit depth : 8 bits
Scan type : Progressive
Bits/(Pixel*Frame) : 0.266
Stream size : 7.28 GiB (69%)
Color primaries : BT.709

Audio
Format : DTS
Format/Info : Digital Theater Systems
Format profile : MA / Core
Bit rate mode : Variable / Constant
Duration : 1h 44mn
Bit rate mode : Variable / Constant
Bit rate : 4 422 Kbps / 1 509 Kbps
Channel(s) : 6 channels
Channel positions : Front: L C R, Side: L R, LFE
Sampling rate : 48.0 KHz
Frame rate : 93.750 fps (512 spf)
Bit depth : 24 bits
Compression mode : Lossless / Lossy
Stream size : 3.23 GiB (31%)
Language : Hindi
Default : Yes
Forced : No
Chapters : YES














Single Link


Code:


1GB Link


Code:



Code: