Salaam Bombay! 1988 1080p BluRay x264 DTS-HDMA 2.0 ESub - DDR









Director: Mira Nair
Writers: Hriday Lani (dialogue), Mira Nair (story)
Stars: Shafiq Syed, Hansa Vithal, Chanda Sharma


ource : *** DDR Blu-ray ***
Format : Matroska
File size : 9.52 GiB
Duration : 1h 54mn
Overall bit rate : 11.9 Mbps
Encoded date : UTC 2016-06-27 12:28:52

Video
Format : AVC
Format/Info : Advanced Video Codec
Format profile : High@L4.1
Format settings, CABAC : Yes
Width : 1 920 pixels
Height : 1 040 pixels
Display aspect ratio : 1.85:1
Frame rate mode : Constant
Frame rate : 23.976 (24000/1001) fps
Color space : YUV
Chroma subsampling : 4:2:0
Bit depth : 8 bits
Scan type : Progressive
Bits/(Pixel*Frame) : 0.209
Stream size : 7.99 GiB (84%)

Audio
Format : DTS
Format/Info : Digital Theater Systems
Format profile : MA / ES Discrete / Core
Duration : 2h 3mn
Bit rate mode : Variable / Constant
Bit rate : 1 920 Kbps / 1 509 Kbps
Channel(s) : 2 channels
Channel positions : Front: L R
Sampling rate : 48.0 KHz
Frame rate : 93.750 fps (512 spf)
Bit depth : 24 bits
Compression mode : Lossless / Lossy
Stream size : 1.52 GiB (16%)
Language : Hindi
Default : Yes
Forced : No

Chapters : YES


Storyline

The boy Krishna is abandoned by his mother at the Apollo Circus and she tells him that he can only return home when he can afford 500 rupees to pay for the bicycle of his brother that he had trashed. Krishna is left behind by the circus and he takes a train to Bombay. Krishna is called Chaipau by the street children of Bombay and he works delivering and selling tea for Chacha, who owns a street bar. Krishna befriends the heroin addicted Chillum that sells drugs for the drug dealer and caftan Baba Golub, and the girl Manju Golub, who is the daughter of Baba with the prostitute Rekha Golub. Krishna dreams on saving 500 rupees to return home, but the life on the streets of Bombay is not easy.









Single Link

Code:


1GB Link

Code:




Code: