Saala khadoos 2016 1080p Blu-ray x264 DTS-HDMA 5.1 ESub - DDR






Source : DDR Blu-ray
Format : Matroska
File size : 10.7 GiB
Duration : 1h 46mn
Overall bit rate : 14.3 Mbps
Encoded date : UTC 2016-06-26 15:37:04

Video
Format : AVC
Format/Info : Advanced Video Codec
Format profile : High@L4.1
Format settings, CABAC : Yes
Width : 1 920 pixels
Height : 816 pixels
Display aspect ratio : 2.35:1
Frame rate mode : Constant
Frame rate : 24.000 fps
Color space : YUV
Chroma subsampling : 4:2:0
Bit depth : 8 bits
Scan type : Progressive
Bits/(Pixel*Frame) : 0.266
Stream size : 7.44 GiB (70%)
Color primaries : BT.709

Audio
Format : DTS
Format/Info : Digital Theater Systems
Format profile : MA / Core
Bit rate mode : Variable / Constant
Bit rate : 4 357 Kbps / 1 509 Kbps
Channel(s) : 6 channels
Channel positions : Front: L C R, Side: L R, LFE
Sampling rate : 48.0 KHz
Frame rate : 93.750 fps (512 spf)
Bit depth : 24 bits
Compression mode : Lossless / Lossy
Stream size : 3.25 GiB (30%)
Language : Hindi
Default : Yes
Forced : No
Chapters : YES








Single Link



Code:

1GB Link


Code:



Code: