Kapoor And Sons (2016) 1080p Bluray x264 DTS HDMA 7.1 ESub - DDR





Format : Matroska
File size : 13.6 GiB
Duration : 2h 17mn
Overall bit rate : 14.2 Mbps
Encoded date : UTC 2016-06-15 19:44:07

Video
Format : AVC
Format profile : High@L4.1
Bit rate : 10 000 Kbps
Width : 1 920 pixels
Height : 816 pixels
Display aspect ratio : 2.35:1
Frame rate mode : Constant
Frame rate : 24.000 fps
Chroma subsampling : 4:2:0
Bit depth : 8 bits
Scan type : Progressive
Bits/(Pixel*Frame) : 0.266
Stream size : 9.62 GiB (71%)
Default : Yes
Forced : No
Color range : Limited
Color primaries : BT.709

Audio
Format : DTS
Format/Info : Digital Theater Systems
Format profile : MA / Core
Duration : 2h 17mn
Bit rate mode : Variable / Constant
Bit rate : 4 128 Kbps / 1 509 Kbps
Channel(s) : 8 channels / 6 channels
Channel positions : Front: L C R, Side: L R, Back: L R, LFE / Front: L C R, Side: L R, LFE
Sampling rate : 48.0 KHz
Frame rate : 93.750 fps (512 spf)
Bit depth : 24 bits
Compression mode : Lossless / Lossy
Stream size : 3.97 GiB (29%)
Language : Hindi
Default : Yes
Forced : No

Text
Format : PGS
Bit rate : 38.4 Kbps
Count of elements : 4320
Stream size : 34.8 MiB (0%)
Language : English
Default : Yes
Forced : No










Single Link


Code:


1GB Link


Code:


Code: