Fan 2016 1080p Bluray x264 DTS HDMA 7.1 MSubs - DDR






Source = BD50 @ DDR
Format : Matroska
File size : 14.6 GiB
Duration : 2h 18mn
Overall bit rate mode : Variable
Overall bit rate : 15.1 Mbps

Video
Format : AVC
Format profile : High@L4.1
Format settings, CABAC : Yes
Bit rate : 10 000 Kbps
Width : 1 920 pixels
Height : 802 pixels
Display aspect ratio : 2.40:1
Frame rate mode : Constant
Frame rate : 24.000 fps
Bit depth : 8 bits
Scan type : Progressive
Bits/(Pixel*Frame) : 0.271
Stream size : 9.64 GiB (66%)
Default : Yes
Forced : No
Color primaries : BT.709
Transfer characteristics : BT.709
Matrix coefficients : BT.709

Audio
Format : DTS
Format/Info : Digital Theater Systems
Format profile : MA / Core
Duration : 2h 18mn
Bit rate mode : Variable / Constant
Bit rate : 4 226 Kbps / 1 509 Kbps
Channel(s) : 8 channels / 6 channels
Channel positions : Front: L C R, Side: L R, Back: L R, LFE / Front: L C R, Side: L R, LFE
Sampling rate : 48.0 KHz
Frame rate : 93.750 fps (512 spf)
Bit depth : 24 bits
Compression mode : Lossless / Lossy
Stream size : 4.08 GiB (28%)
Language : Hindi
Default : Yes
Forced : No

Audio #2
ID : 3
Format : AC-3
Format/Info : Audio Coding 3
Mode extension : CM (complete main)
Format settings, Endianness : Big
Codec ID : A_AC3
Duration : 2h 18mn
Bit rate mode : Constant
Bit rate : 640 Kbps
Channel(s) : 6 channels
Channel positions : Front: L C R, Side: L R, LFE
Sampling rate : 48.0 KHz
Frame rate : 31.250 fps (1536 spf)
Compression mode : Lossy
Stream size : 633 MiB (4%)
Language : Hindi
Default : No
Forced : No

Text #1
ID : 4
Format : PGS
Codec ID : S_HDMV/PGS
Codec ID/Info : Picture based subtitle format used on BDs/HD-DVDs
Duration : 2h 9mn
Bit rate : 27.1 Kbps
Count of elements : 2824
Stream size : 25.1 MiB (0%)
Language : English
Default : Yes
Forced : No



Text #6
ID : 9
Format : PGS
Codec ID : S_HDMV/PGS
Codec ID/Info : Picture based subtitle format used on BDs/HD-DVDs
Duration : 10mn 39s
Bit rate : 6 292 bps
Count of elements : 80
Stream size : 491 KiB (0%)
Language : Hindi
Default : No
Forced : No












Single Link


Code:


Code:


1GB Link

Code:




Code:




Code: