Fitoor (2016) 1080p Bluray x264 ATMOS 7.1 ESub - DDR






Source = BD50 @ DDR
Format : Matroska
File size : 13.5 GiB
Duration : 2h 9mn
Overall bit rate mode : Variable
Overall bit rate : 14.9 Mbps

Video
Format : AVC
Format profile : High@L4.1
Bit rate : 9 841 Kbps
Width : 1 920 pixels
Height : 816 pixels
Display aspect ratio : 2.35:1
Frame rate mode : Constant
Frame rate : 24.000 fps
Bit depth : 8 bits
Scan type : Progressive
Transfer characteristics : BT.709

Audio #1
Format : Atmos / TrueHD
Codec ID : A_TRUEHD
Bit rate mode : Variable
Bit rate : 4 359 Kbps
Maximum bit rate : 7 359 Kbps
Channel(s) : Object Based / 8 channels
Channel positions : Object Based / Front: L C R, Side: L R, Back: L R, LFE
Sampling rate : / 48.0 KHz
Compression mode : Lossless
Stream size : 3.94 GiB (29%)
Language : Hindi
Default : Yes
Forced : No

Audio #2
ID : 3
Format : AC-3
Format/Info : Audio Coding 3
Bit rate mode : Constant
Bit rate : 640 Kbps
Channel(s) : 6 channels
Channel positions : Front: L C R, Side: L R, LFE
Sampling rate : 48.0 KHz
Compression mode : Lossy
Stream size : 592 MiB (4%)
Language : Hindi
Default : No
Forced : No

Language : Hindi

Chapters: YES (unnamed)

















Single Link




Code:

1GB Link

Code:



Code: